Сергей Юрский. Знакомое-незнакомое [2015 г., Литературные чтения, SATRip]


 

[Цитировать]

Сергей Юрский. Знакомое-незнакомое Концертный зал имени П. И. Чайковского.
Год выпуска: 2015.
Жанр: Литературные чтения.
Продолжительность: 01:44:31.
Звучат произведения: Михаила Булгакова, Александра Николаевича Островского, Иосифа Бродского, Роберта Бёрнса.
Исполнитель: народный артист РСФСР Сергей Юрский.
Описание:
Как истинный мастер сцены, он направляет воображение зрителей, обходясь парой стульев, носовым платком, единственной свечой.
"Я сосредоточиваю всё своё внимание, - пишет Юрский, - на литературе, которая могла превратиться в драматическое действие, сплетающее судьбу героев и судьбу авторов. Контрастность, взаимопроникновение или редкий унисон этих линий создают сложную игру, требующую особых мизансцен и неординарного пластического решения".

Дополнительная информация:
Страна: Россия .
Релиз
Рип lesik689.

Качество видео:...SATRip
Формат:.................AVI
Видео:..720x400 (1.80:1), 25 fps, XviD MPEG-4 ~1802 kbps avg, 0.25 bit/pixel
Аудио:..48 kHz, MPEG Layer 3, 2 ch, ~192.00 kbps avg

Отчет MI

Общее
Полное имя : Sergey.Yurskiy.Znakomoe.neznakomoe.2015.XviD.WEBRip.fenixclub.avi
Format : AVI
Format/Info : Audio Video Interleave
File size : 1.46 GiB
Duration : 1h 44mn
Overall bit rate : 2 004 Kbps
Writing application : VirtualDubMod 1.5.10.2 (build 2542/release)
Writing library : VirtualDubMod build 2542/release
Video
ID : 0
Format : MPEG-4 Visual
Format profile : Advanced Simple@L5
Format settings, BVOP : 2
Format settings, QPel : No
Format settings, GMC : No warppoints
Format settings, Matrix : Default (MPEG)
Muxing mode : Packed bitstream
Codec ID : XVID
Codec ID/Hint : XviD
Duration : 1h 44mn
Bit rate : 1 802 Kbps
Width : 720 pixels
Height : 400 pixels
Display aspect ratio : 16:9
Original display aspect rat : 16:9
Frame rate : 25.000 fps
Color space : YUV
Chroma subsampling : 4:2:0
Bit depth : 8 bits
Scan type : Progressive
Compression mode : Lossy
Bits/(Pixel*Frame) : 0.250
Stream size : 1.32 GiB (90%)
Writing library : XviD 64
Audio
ID : 1
Format : MPEG Audio
Format version : Version 1
Format profile : Layer 3
Mode : Joint stereo
Codec ID : 55
Codec ID/Hint : MP3
Duration : 1h 44mn
Bit rate mode : Constant
Bit rate : 192 Kbps
Channel(s) : 2 channels
Sampling rate : 48.0 KHz
Compression mode : Lossy
Stream size : 144 MiB (10%)
Alignment : Aligned on interleaves
Interleave, duration : 40 ms (1.00 video frame)
Interleave, preload duratio : 504 ms.

Скриншоты

Альтернативный хост




Показать сообщения:    

Текущее время: 06-Дек 20:59

Часовой пояс: UTC + 3


Вы не можете начинать темы
Вы не можете отвечать на сообщения
Вы не можете редактировать свои сообщения
Вы не можете удалять свои сообщения
Вы не можете голосовать в опросах
Вы не можете прикреплять файлы к сообщениям
Вы не можете скачивать файлы