(Chamber) Н.Римский-Корсаков - Шехерезада, С.Борткевич - Тысяча и одна ночь, А.Хачатурян - Трио / Rimsky-Korsakov - Scheherazade, Bortkiewicz - A Thousand and One Nights, Khachaturian - Trio (Zurich Ensemble) - 2014, FLAC (image+.cue) lossless WEB


 

[Цитировать]

Zurich Ensemble: Rimsky-Korsakov - Scheherazade, Bortkiewicz - A Thousand and One Nights, Khachaturian - Trio
Жанр: Chamber
Страна-производитель диска: Germany
Год издания диска: 2014
Издатель (лейбл): Paladino music
Номер по каталогу: PMR0036
Дата записи: 2013
Аудиокодек: FLAC
Тип рипа: image+.cue
Битрейт аудио: lossless
Продолжительность: 72:21
Источник: qobuz
Наличие сканов в содержимом раздачи: да
Треклист:

Сергей Борткевич (1877–1952)

Тысяча и одна ночь, восточная балетная сюита, op. 37, 1926 (arr. Benjamin Engeli) [10:54]
01 Калиф Харун-аль Рашид 1:52
02 Танец трех сестер 2:26
03 Заколдованный замок 1:50
04 Сказка о бедном рыбаке 3:01
05 Вакханалия 1:45
Николай Римский-Корсаков (1844 –1908)
Шехерезада, симфоническая сюита, op. 35, 1888 (arr. Florian Noack and Benjamin Engeli) [43:31]
06 I. Пролог. Море и корабль Синдбада 09:58
07 II. Рассказ царевича Календера 11:26
08 III. Юные царевич и царевна 09:08
09 IV. Багдадский праздник. Море 12:59
Арам Хачатурян (1903–1978)
Трио для кларнета, скрипки и фортепиано, 1932 [16:06]
10 I. Andante von dolore, con molt’espressione 04:47
11 II. Allegro 04:18
12 III. Moderato 07:01
Исполнители:
ZURICH ENSEMBLE
Fabio Di Casola, clarinet
Kamilla Schatz, violin
Pi-Chin Chien, cello
Benjamin Engeli, piano
Rec. 1–3 August 2013, Studio DRS, Zurich/Switzerland

Содержание индексной карты (.CUE)

REM GENRE "Classical"
REM DATE "2013"
REM DISCID 9D10890C
PERFORMER "Zurich Ensemble"
TITLE "Scheherazade"
FILE "Scheherazade - Zurich Ensemble.flac" WAVE
TRACK 01 AUDIO
TITLE "5 Melodies from “A Thousand and One Nights”, Op. 37 - I. The Kalif Harun-al Raschid"
SONGWRITER "Sergeï Bortkiewicz"
INDEX 01 00:00:00
TRACK 02 AUDIO
TITLE "5 Melodies from “A Thousand and One Nights”, Op. 37 - VIII. Dance of the three Sisters"
SONGWRITER "Sergeï Bortkiewicz"
INDEX 01 01:52:45
TRACK 03 AUDIO
TITLE "5 Melodies from “A Thousand and One Nights”, Op. 37 - V. The Bewitched Castle"
SONGWRITER "Sergeï Bortkiewicz"
INDEX 01 04:18:61
TRACK 04 AUDIO
TITLE "5 Melodies from “A Thousand and One Nights”, Op. 37 - II. The Tale of the Poor Fisherman"
SONGWRITER "Sergeï Bortkiewicz"
INDEX 01 06:09:19
TRACK 05 AUDIO
TITLE "5 Melodies from “A Thousand and One Nights”, Op. 37 - IX. Bacchanale"
SONGWRITER "Sergeï Bortkiewicz"
INDEX 01 09:10:03
TRACK 06 AUDIO
TITLE "Scheherazade, Op. 35 - I. Largo e Maestoso"
SONGWRITER "Nikolay Rimsky-Korsakov"
INDEX 01 10:54:58
TRACK 07 AUDIO
TITLE "Scheherazade, Op. 35 - II. Lento"
SONGWRITER "Nikolay Rimsky-Korsakov"
INDEX 01 20:52:38
TRACK 08 AUDIO
TITLE "Scheherazade, Op. 35 - III. Andantino quasi allegretto"
SONGWRITER "Nikolay Rimsky-Korsakov"
INDEX 01 32:19:03
TRACK 09 AUDIO
TITLE "Scheherazade, Op. 35 - IV. Allegro molto"
SONGWRITER "Nikolay Rimsky-Korsakov"
INDEX 01 41:26:58
TRACK 10 AUDIO
TITLE "Clarinet Trio - I. Andante con dolore, con molto espressione"
SONGWRITER "Aram Khatchaturian"
INDEX 01 54:26:32
TRACK 11 AUDIO
TITLE "Clarinet Trio - II. Allegro"
SONGWRITER "Aram Khatchaturian"
INDEX 01 59:13:24
TRACK 12 AUDIO
TITLE "Clarinet Trio - III. Moderato"
SONGWRITER "Aram Khatchaturian"
INDEX 01 63:31:61

Лог проверки качества

AUDIOCHECKER v2.0 beta (build 457) - by Dester - opdester@freemail.hu
~~~~~~~~~~~~~~~~~~~~~~~~~~~~~~~~~~
Started at: четверг, 02. 04. 2015. - 15:21.10
1 file found
1 -===- D:\Music 3\Scheherazade - Zurich Ensemble\Scheherazade - Zurich Ensemble.flac
Extracted successfully
Conclusion: this track is CDDA with probability 76%
Tempfile successfully deleted.
Finished at: четверг, 02. 04. 2015. - 15:43.21 (operation time: 0:22.11)
Доп. информация: Четыре музыканта из швейцарского 'Цюрихского ансамбля' - скрипка, фортепиано, виолончель и кларнет - представляют камерную версию "Шехерезады" Н. А. Римского-Корсакова. Также в программе ещё два произведения с характерным восточным колоритом - сюита "Тысяча и одна ночь" украинского композитора Сергея Борткевича и Трио с кларнетом Арама Ильича Хачатуряна.



Показать сообщения:    

Текущее время: 07-Дек 19:26

Часовой пояс: UTC + 3


Вы не можете начинать темы
Вы не можете отвечать на сообщения
Вы не можете редактировать свои сообщения
Вы не можете удалять свои сообщения
Вы не можете голосовать в опросах
Вы не можете прикреплять файлы к сообщениям
Вы не можете скачивать файлы