(Ballet, Orchestral) [3LP Box] [24/192] С.Прокофьев - Ромео и Джульетта, балет (Жюрайтис, СО БТ СССР) - 1982, FLAC (tracks)


Статистика раздачи [Обновить пиров]
Размер:  4.84 GB   |    Зарегистрирован:  8 месяцев 15 дней   |    Скачан:  1 раз

Полного источника не было: 7 месяцев 2 дня

 
   
 
 
 

[Цитировать]

С.Прокофьев - Ромео и Джульетта, балет (Жюрайтис, СО БТ СССР)
Жанр: Ballet, Orchestral
Год первой публикации: 1982
Тип рипа: image+.cue
Формат раздачи: 24/192
Продолжительность: 2:22:03
Оцифровка: автором раздачи
Лейбл: Мелодия
Страна-производитель: СССР
Каталожный номер: С10 - 17133-8
Год выпуска: 1982
Код класса состояния винила: NM
Дополнительно: АЗГ, экспортное издание
Предварительная обработка: KAB EV-1 RCM, L'Art du Son fluid
Устройство воспроизведения: Lenco L78, Ortofon AS-212, ELAC STS344/D355E
Предварительный усилитель: Mitsubishi DA-U680S
АЦП: RME HDSP 9632
Программа-оцифровщик: Sony Sound Forge 10.0
Постобработка: удалил несколько щелчков
Треклист:
С.Прокофьев
Ромео и Джульетта (сюита №2 из балета)

A1-B1-C1 Действие 1

01 Вступление
Картина 1
02 Ромео
03 Улица просыпается
04 Утренний танец
05 Ссора
06 Бой
07 Приказ герцога
08 Интерлюдия
Картина 2
09 Приготовление к балу
10 Джульетта-Девочка
11 Съезд гостей
12 Маски
13 Танец рыцарей
14 Вариация Джульетты
15 Меркуцио
16 Мадригал
17 Тибальд узнает Ромео
18 Разъезд гостей (гавот)
19 Сцена у балкона
20 Вариация Ромео
21 Любовный танец

C2-D1 Действие 2

Картина 3
22 Народный танец
23 Ромео и Меркуцио
24 Танец пяти пар
25 Танец с мандолинами
26 Кормилица
27 Кормилица передает Ромео записку Джульетты
Картина 4
28 Ромео у патера Лоренцо
29 Джульетта у патера Лоренцо
Картина 5
30 Народное веселье продолжается
31 Снова народный праздник
32 Встепеча Тибальда с Меркуцио
33 Тибалд бьется с Меркуцио
34 Меркуцио умирает
35 Ромео решает мстить за смерть Меркуцио
36 Финал

E1-F1 Действие 3

Картина 6
37 Вступление
38 Ромео и Джульетта
39 Прощание перед разлукой
40 Кормилица
41 Джульетта отказывается выйти за Париса
42 Джульетта одна
43 Интерлюдия
Картина 7
44 У Лоренцо
45 Интерлюдия
Картина 8
46 Снова у Джульетты
47 Джульетта одна
48 Утренняя серенада
49 Танец девушек с лилиями
50 У постели Джульетты

F2 Действие 4 (Эпилог)

Картина 9
51 Похороны Джульетты
52 Смерть Джульетты

F3 Приложения

53 Кормилица и друзья Меркуцио
54 Мавританский танец
55 Сцена письма
Оркестр Большого театра СССР
Дирижёр Альгис Жюрайтис

Спектр etc.

Спасибо всем, кто принял участие в опросе. Это позволило мне проделать кое-какую работу над ошибками в тракте.

cue

REM GENRE Ballet
REM DATE 1982
REM Каталожный номер С10 - 17133-8
PERFORMER "Жюрайтис, СО БТ СССР"
TITLE "С.Прокофьев - Ромео и Джульетта"
FILE "{uaoa} Прокофьев - Ромео и Джульетта Действие 1 (Жюрайтис, СО БТ СССР).flac" WAVE
TRACK 01 AUDIO
TITLE "01 Вступление"
INDEX 01 00:00:00
TRACK 02 AUDIO
TITLE "02 Ромео"
INDEX 01 02:22:47
TRACK 03 AUDIO
TITLE "03 Улица просыпается"
INDEX 01 03:55:16
TRACK 04 AUDIO
TITLE "04 Утренний танец"
INDEX 01 06:39:12
TRACK 05 AUDIO
TITLE "05 Ссора"
INDEX 01 08:37:21
TRACK 06 AUDIO
TITLE "06 Бой"
INDEX 01 10:33:49
TRACK 07 AUDIO
TITLE "07 Приказ герцога"
INDEX 01 14:04:44
TRACK 08 AUDIO
TITLE "08 Интерлюдия"
INDEX 01 15:00:49
TRACK 09 AUDIO
TITLE "09 Картина 2. Приготовление к балу"
INDEX 01 17:08:24
TRACK 10 AUDIO
TITLE "10 Джульетта-Девочка"
INDEX 01 19:06:37
TRACK 11 AUDIO
TITLE "11 Съезд гостей"
INDEX 01 22:01:14
TRACK 12 AUDIO
TITLE "12 Маски"
INDEX 01 25:36:46
TRACK 13 AUDIO
TITLE "13 Танец рыцарей"
INDEX 01 28:02:41
TRACK 14 AUDIO
TITLE "14 Вариация Джульетты"
INDEX 01 31:11:29
TRACK 15 AUDIO
TITLE "15 Меркуцио"
INDEX 01 35:47:04
TRACK 16 AUDIO
TITLE "16 Мадригал"
INDEX 01 37:58:12
TRACK 17 AUDIO
TITLE "17 Тибальд узнает Ромео"
INDEX 01 41:24:10
TRACK 18 AUDIO
TITLE "18 Разъезд гостей (гавот)"
INDEX 01 43:11:73
TRACK 19 AUDIO
TITLE "19 Сцена у балкона"
INDEX 01 47:14:04
TRACK 20 AUDIO
TITLE "20 Вариация Ромео"
INDEX 01 50:44:74
TRACK 21 AUDIO
TITLE "21 Любовный танец"
INDEX 01 51:44:14
FILE "{uaoa} Прокофьев - Ромео и Джульетта Действие 2 (Жюрайтис, СО БТ СССР).flac" WAVE
TRACK 22 AUDIO
TITLE "22 Действие 2. Картина 3. Народный танец"
INDEX 01 00:00:00
TRACK 23 AUDIO
TITLE "23 Ромео и Меркуцио"
INDEX 01 03:07:04
TRACK 24 AUDIO
TITLE "24 Танец пяти пар"
INDEX 01 06:29:32
TRACK 25 AUDIO
TITLE "25 Танец с мандолинами"
INDEX 01 10:40:10
TRACK 26 AUDIO
TITLE "26 Кормилица"
INDEX 01 12:30:08
TRACK 27 AUDIO
TITLE "27 Кормилица передает Ромео записку Джульетты"
INDEX 01 14:23:68
TRACK 28 AUDIO
TITLE "28 Картина 4. Ромео у патера Лоренцо"
INDEX 01 15:23:03
TRACK 2 AUDIO
TITLE "29 Джульетта у патера Лоренцо"
INDEX 01 18:30:55
TRACK 30 AUDIO
TITLE "30 Картина 5. Народное веселье продолжается"
INDEX 01 21:45:39
TRACK 31 AUDIO
TITLE "31 Снова народный праздник"
INDEX 01 25:00:23
TRACK 32 AUDIO
TITLE "32 Встреча Тибальда с Меркуцио"
INDEX 01 27:14:51
TRACK 33 AUDIO
TITLE "33 Тибальд бьется с Меркуцио"
INDEX 01 29:22:38
TRACK 34 AUDIO
TITLE "34 Меркуцио умирает"
INDEX 01 30:53:47
TRACK 35 AUDIO
TITLE "35 Ромео решает мстить за смерть Меркуцио"
INDEX 01 34:14:43
TRACK 36 AUDIO
TITLE "36 Финал"
INDEX 01 36:22:15
FILE "{uaoa} Прокофьев - Ромео и Джульетта Действие 3 (Жюрайтис, СО БТ СССР).flac" WAVE
TRACK 37 AUDIO
TITLE "37 Действие 3. Картина 6. Вступление"
INDEX 01 00:00:00
TRACK 38 AUDIO
TITLE "38 Ромео и Джульетта"
INDEX 01 00:57:16
TRACK 39 AUDIO
TITLE "39 Прощание перед разлукой"
INDEX 01 02:13:19
TRACK 40 AUDIO
TITLE "40 Кормилица"
INDEX 01 06:59:35
TRACK 41 AUDIO
TITLE "41 Джульетта отказывается выйти за Париса"
INDEX 01 08:46:41
TRACK 42 AUDIO
TITLE "42 Джульетта одна"
INDEX 01 11:12:72
TRACK 43 AUDIO
TITLE "43 Интерлюдия"
INDEX 01 12:15:04
TRACK 44 AUDIO
TITLE "44 Картина 7. У Лоренцо"
INDEX 01 13:31:10
TRACK 45 AUDIO
TITLE "45 Интерлюдия"
INDEX 01 17:40:60
TRACK 46 AUDIO
TITLE "46 Картина 8. Снова у Джульетты"
INDEX 01 19:03:29
TRACK 47 AUDIO
TITLE "47 Джульетта одна"
INDEX 01 21:47:20
TRACK 48 AUDIO
TITLE "48 Утренняя серенада"
INDEX 01 25:14:53
TRACK 49 AUDIO
TITLE "49 Танец девушек с лилиями"
INDEX 01 28:07:33
TRACK 50 AUDIO
TITLE "50 У постели Джульетты"
INDEX 01 30:21:02
FILE "{uaoa} Прокофьев - Ромео и Джульетта Действие 4 (Жюрайтис, СО БТ СССР).flac" WAVE
TRACK 51 AUDIO
TITLE "51 Действие 4. Картина 9. Похороны Джульетты"
INDEX 01 00:00:00
TRACK 52 AUDIO
TITLE "52 Смерть Джульетты"
INDEX 01 05:14:13
FILE "{uaoa} Прокофьев - Ромео и Джульетта Приложение (Жюрайтис, СО БТ СССР).flac" WAVE
TRACK 53 AUDIO
TITLE "53 Приложения. Кормилица и друзья Меркуцио"
INDEX 01 00:00:00
TRACK 54 AUDIO
TITLE "54 Мавританский танец"
INDEX 01 01:12:55
TRACK 55 AUDIO
TITLE "55 Сцена письма"
INDEX 01 03:36:00
[teatrix.ru].t20819.torrent 
Торрент: Зарегистрирован [ 2016-03-20 00:47 ] · AD88E42B6B6528EDF7AE112BE1C5655E62180730

Скачать .torrent

Скачать

13 KB

Статус: проверено
Скачан: 1 раз
Размер: 4.84 GB
terms.php



Быстрый ответ

Имя:

      
Для отправки сообщений необходимо включить JavaScript
Показать сообщения:    

Текущее время: 04-Дек 00:53

Часовой пояс: UTC + 3


Вы можете начинать темы
Вы можете отвечать на сообщения
Вы не можете редактировать свои сообщения
Вы не можете удалять свои сообщения
Вы не можете голосовать в опросах
Вы не можете прикреплять файлы к сообщениям
Вы можете скачивать файлы