Монолог в 4-х частях. Сергей Юрский (Наталия Урвачёва) [2015 г., Монолог, SATRip]


Статистика раздачи [Обновить пиров]
Размер:  1.33 GB   |    Зарегистрирован:  8 месяцев 22 дня   |    Скачан:  0 раз

Полного источника не было: Никогда

 
   
 
 
 

[Цитировать]

Монолог в 4-х частях. Сергей Юрский К 80-летию со дня рождения Сергея Юрьевича Юрского.
(16 марта 1935, Ленинград)

Год выпуска: 2015.
Жанр: Монолог.
Продолжительность: 00:26:14 + 00:25:47 + 00:25:58 + 00:26:01 (01:43:51).
Режиссёр: Наталия Урвачёва.
Герой монолога: народный артист РСФСР Сергей Юрский.
Описание:
Часть 1-я
Атмосфера послевоенных лет и детство в цирке… в буквальном смысле. Поскольку отец Сергея Юрского был художественным руководителем цирка на Цветном бульваре. Сергей Юрьевич рассказывает о первых театральных впечатлениях и учителях. А также о выдающемся явлении того времени - Ленинградском телевидении.
Часть 2-я
Большой драматический театр. 1960 - 70-е годы - время расцвета БДТ, когда его труппа считалась одной из лучших в мире. Сергей Юрский был ее украшением в течение многих лет. О Георгии Товстоногове, его гениальной интуиции и способности собирать вокруг себя людей во имя театра - речь в программе.
Часть 3-я
Работа на сцене Театра им. Моссовета с великими артистами Ростиславом Пляттом и Фаиной Раневской и создание собственного театрального "пространства", в котором Юрский был актером, режиссером, драматургом.
Речь пойдет о режиссере Михаиле Швейцере, влияние которого на жизнь Сергея Юрского переоценить невозможно.
Часть 4-я
Об истории создания фильма "Чернов/Chernov", по собственной одноименной повести. О знакомстве с Иосифом Бродским и о работе над ролью его отца в фильме Андрея Хржановского "Полторы комнаты". Сергей Юрский рассказывает о своих главных режиссерских и актерских принципах, о влиянии знаменитых кинообразов на свою актерскую жизнь, а также о том, какое огромное место в его жизни занимают мысль и слово.

Дополнительная информация:
Страна: Россия .
Выпущено: © ООО "Студия Н+Н" по заказу © ГТРК "Культура".
Автор сценария: Елена Достовалова.
Операторы: Владимир Семёнов, Матвей Фёдоров.
Использованы фрагменты фильмов и спектаклей, фото и видеоматериалы из архива Сергея Юрского.

В эфире 16-19 марта 2015 года.
Релиз
Рип lesik689.
Качество видео:...SATRip
Формат:.................AVI
Видео:..704x528 (1.33:1), 25 fps, XviD MPEG-4 ~1693 - ~1701 kbps avg, 0.18 bit/pixel
Аудио:..48 kHz, MPEG Layer 3, 2 ch, ~128.00 kbps avg

Отчет MI

Часть 1
Общее
Полное имя : Monolog.v.4-h.chastyah.Sergey.Yurskij.(4.chasti).2015.SATRip.fenixclub\Monolog.v.4-h.chastyah.Sergey.Yurskij.2015.SATRip.fenixclub.chast'_1.avi
Format : AVI
Format/Info : Audio Video Interleave
File size : 344 MiB
Duration : 26mn 13s
Overall bit rate : 1 831 Kbps
Writing application : VirtualDubMod 1.5.10.2 (build 2542/release)
Writing library : VirtualDubMod build 2542/release
Video
ID : 0
Format : MPEG-4 Visual
Format profile : Advanced Simple@L5
Format settings, BVOP : 2
Format settings, QPel : No
Format settings, GMC : No warppoints
Format settings, Matrix : Default (MPEG)
Muxing mode : Packed bitstream
Codec ID : XVID
Codec ID/Hint : XviD
Duration : 26mn 13s
Bit rate : 1 693 Kbps
Width : 704 pixels
Height : 528 pixels
Display aspect ratio : 5:4
Original display aspect rat : 4:3
Frame rate : 25.000 fps
Color space : YUV
Chroma subsampling : 4:2:0
Bit depth : 8 bits
Scan type : Progressive
Compression mode : Lossy
Bits/(Pixel*Frame) : 0.182
Stream size : 318 MiB (92%)
Writing library : XviD 64
Audio
ID : 1
Format : MPEG Audio
Format version : Version 1
Format profile : Layer 3
Mode : Joint stereo
Mode extension : MS Stereo
Codec ID : 55
Codec ID/Hint : MP3
Duration : 26mn 13s
Bit rate mode : Constant
Bit rate : 128 Kbps
Channel(s) : 2 channels
Sampling rate : 48.0 KHz
Compression mode : Lossy
Stream size : 24.0 MiB (7%)
Alignment : Split accross interleaves
Interleave, duration : 40 ms (1.00 video frame)
Interleave, preload duratio : 500 ms.
Часть 2
Общее
Полное имя : Monolog.v.4-h.chastyah.Sergey.Yurskij.(4.chasti).2015.SATRip.fenixclub\Monolog.v.4-h.chastyah.Sergey.Yurskij.2015.SATRip.fenixclub.chast'_2.avi
Format : AVI
Format/Info : Audio Video Interleave
File size : 339 MiB
Duration : 25mn 47s
Overall bit rate : 1 839 Kbps
Writing application : VirtualDubMod 1.5.10.2 (build 2542/release)
Writing library : VirtualDubMod build 2542/release
Video
ID : 0
Format : MPEG-4 Visual
Format profile : Advanced Simple@L5
Format settings, BVOP : 2
Format settings, QPel : No
Format settings, GMC : No warppoints
Format settings, Matrix : Default (MPEG)
Muxing mode : Packed bitstream
Codec ID : XVID
Codec ID/Hint : XviD
Duration : 25mn 47s
Bit rate : 1 701 Kbps
Width : 704 pixels
Height : 528 pixels
Display aspect ratio : 5:4
Original display aspect rat : 4:3
Frame rate : 25.000 fps
Color space : YUV
Chroma subsampling : 4:2:0
Bit depth : 8 bits
Scan type : Progressive
Compression mode : Lossy
Bits/(Pixel*Frame) : 0.183
Stream size : 314 MiB (93%)
Writing library : XviD 64
Audio
ID : 1
Format : MPEG Audio
Format version : Version 1
Format profile : Layer 3
Mode : Joint stereo
Mode extension : MS Stereo
Codec ID : 55
Codec ID/Hint : MP3
Duration : 25mn 47s
Bit rate mode : Constant
Bit rate : 128 Kbps
Channel(s) : 2 channels
Sampling rate : 48.0 KHz
Compression mode : Lossy
Stream size : 23.6 MiB (7%)
Alignment : Split accross interleaves
Interleave, duration : 40 ms (1.00 video frame)
Interleave, preload duratio : 500 ms.
Часть 3
Общее
Полное имя : Monolog.v.4-h.chastyah.Sergey.Yurskij.(4.chasti).2015.SATRip.fenixclub\Monolog.v.4-h.chastyah.Sergey.Yurskij.2015.SATRip.fenixclub.chast'_3.avi
Format : AVI
Format/Info : Audio Video Interleave
File size : 341 MiB
Duration : 25mn 57s
Overall bit rate : 1 838 Kbps
Writing application : VirtualDubMod 1.5.10.2 (build 2542/release)
Writing library : VirtualDubMod build 2542/release
Video
ID : 0
Format : MPEG-4 Visual
Format profile : Advanced Simple@L5
Format settings, BVOP : 2
Format settings, QPel : No
Format settings, GMC : No warppoints
Format settings, Matrix : Default (MPEG)
Muxing mode : Packed bitstream
Codec ID : XVID
Codec ID/Hint : XviD
Duration : 25mn 57s
Bit rate : 1 700 Kbps
Width : 704 pixels
Height : 528 pixels
Display aspect ratio : 5:4
Original display aspect rat : 4:3
Frame rate : 25.000 fps
Color space : YUV
Chroma subsampling : 4:2:0
Bit depth : 8 bits
Scan type : Progressive
Compression mode : Lossy
Bits/(Pixel*Frame) : 0.183
Stream size : 316 MiB (93%)
Writing library : XviD 64
Audio
ID : 1
Format : MPEG Audio
Format version : Version 1
Format profile : Layer 3
Mode : Joint stereo
Mode extension : MS Stereo
Codec ID : 55
Codec ID/Hint : MP3
Duration : 25mn 57s
Bit rate mode : Constant
Bit rate : 128 Kbps
Channel(s) : 2 channels
Sampling rate : 48.0 KHz
Compression mode : Lossy
Stream size : 23.8 MiB (7%)
Alignment : Split accross interleaves
Interleave, duration : 40 ms (1.00 video frame)
Interleave, preload duratio : 500 ms.
Часть 4
Общее
Полное имя : Monolog.v.4-h.chastyah.Sergey.Yurskij.(4.chasti).2015.SATRip.fenixclub\Monolog.v.4-h.chastyah.Sergey.Yurskij.2015.SATRip.fenixclub.chast'_4.avi
Format : AVI
Format/Info : Audio Video Interleave
File size : 342 MiB
Duration : 26mn 1s
Overall bit rate : 1 839 Kbps
Writing application : VirtualDubMod 1.5.10.2 (build 2542/release)
Writing library : VirtualDubMod build 2542/release
Video
ID : 0
Format : MPEG-4 Visual
Format profile : Advanced Simple@L5
Format settings, BVOP : 2
Format settings, QPel : No
Format settings, GMC : No warppoints
Format settings, Matrix : Default (MPEG)
Muxing mode : Packed bitstream
Codec ID : XVID
Codec ID/Hint : XviD
Duration : 26mn 1s
Bit rate : 1 702 Kbps
Width : 704 pixels
Height : 528 pixels
Display aspect ratio : 5:4
Original display aspect rat : 4:3
Frame rate : 25.000 fps
Color space : YUV
Chroma subsampling : 4:2:0
Bit depth : 8 bits
Scan type : Progressive
Compression mode : Lossy
Bits/(Pixel*Frame) : 0.183
Stream size : 317 MiB (93%)
Writing library : XviD 64
Audio
ID : 1
Format : MPEG Audio
Format version : Version 1
Format profile : Layer 3
Mode : Joint stereo
Mode extension : MS Stereo
Codec ID : 55
Codec ID/Hint : MP3
Duration : 26mn 1s
Bit rate mode : Constant
Bit rate : 128 Kbps
Channel(s) : 2 channels
Sampling rate : 48.0 KHz
Compression mode : Lossy
Stream size : 23.8 MiB (7%)
Alignment : Split accross interleaves
Interleave, duration : 40 ms (1.00 video frame)
Interleave, preload duratio : 500 ms.

Скриншоты

Альтернативный хост

[teatrix.ru].t20820.torrent 
Торрент: Зарегистрирован [ 2016-03-20 00:47 ] · 2F1848E52BB333BA55A11D0A5025BF791FC08E32

Скачать .torrent

Скачать

14 KB

Статус: проверено
Скачан: 0 раз
Размер: 1.33 GB
terms.php



Быстрый ответ

Имя:

      
Для отправки сообщений необходимо включить JavaScript
Показать сообщения:    

Текущее время: 11-Дек 05:22

Часовой пояс: UTC + 3


Вы можете начинать темы
Вы можете отвечать на сообщения
Вы не можете редактировать свои сообщения
Вы не можете удалять свои сообщения
Вы не можете голосовать в опросах
Вы не можете прикреплять файлы к сообщениям
Вы можете скачивать файлы