(Opera) Gioachino Rossini - Adelaide di Borgogna / Джоаккино Россини - Аделаида Бургундская (Giuliano Carella; Jennifer Larmore, Marjella Cullagh, Mirco Palazzi, Bruce Ford), 2005 - live from the Edinburgh Festival - 2007, FLAC (image+.cue), lossless


 

[Цитировать]

Gioachino Rossini - Adelaide di Borgogna / Джоаккино Россини - Аделаида Бургундская (Giuliano Carella; Jennifer Larmore, Marjella Cullagh, Mirco Palazzi, Bruce Ford, Rebecca Bottone)
Жанр: Opera
Страна-производитель диска: Англия
Год издания диска: 2007
Издатель (лейбл): Opera Rara
Дата записи: 2005
Аудиокодек: FLAC
Тип рипа: image+.cue
Битрейт аудио: lossless
Продолжительность: 128:19
Источник: релизер (Canarias en Musica)
Исполнители:
Ottone - Jennifer Larmore,
Adelaide - Marjella Cullagh,
Berengario - Mirco Palazzi,
Adalberto - Bruce Ford,
Eurice - Rebecca Bottone,
Iroldo - Mark Wilde,
Ernesto - Ashley Catting.
Giuliano Carella, Conductor,
Scottish Chamber Orchestra,
Scottish Chamber Chorus.
Recording of a concert performance in the Usher Hall, Edinburgh (19 August 2005).

Лог создания рипаЛог создания рипа CD 1

X Lossless Decoder version 20141129 (148.1)
XLD extraction logfile from 2015-03-30 19:00:22 +0100
Giuliano Carella / Adelaide di Borgogna Disc 1
Used drive : MATSHITA DVD-R UJ-8A8 (revision HB14)
Media type : Pressed CD
Ripper mode : XLD Secure Ripper
Disable audio cache : OK for the drive with a cache less than 1375KiB
Make use of C2 pointers : NO
Read offset correction : 102
Max retry count : 20
Gap status : Analyzed, Appended
TOC of the extracted CD
Track | Start | Length | Start sector | End sector
---------------------------------------------------------
1 | 00:00:00 | 05:53:56 | 0 | 26530
2 | 05:53:56 | 02:11:19 | 26531 | 36374
3 | 08:05:00 | 02:44:27 | 36375 | 48701
4 | 10:49:27 | 01:53:61 | 48702 | 57237
5 | 12:43:13 | 02:29:37 | 57238 | 68449
6 | 15:12:50 | 01:06:42 | 68450 | 73441
7 | 16:19:17 | 01:39:57 | 73442 | 80923
8 | 17:58:74 | 01:46:30 | 80924 | 88903
9 | 19:45:29 | 02:29:12 | 88904 | 100090
10 | 22:14:41 | 03:00:40 | 100091 | 113630
11 | 25:15:06 | 02:34:48 | 113631 | 125228
12 | 27:49:54 | 02:33:30 | 125229 | 136733
13 | 30:23:09 | 01:35:04 | 136734 | 143862
14 | 31:58:13 | 01:52:28 | 143863 | 152290
15 | 33:50:41 | 01:04:31 | 152291 | 157121
16 | 34:54:72 | 01:29:41 | 157122 | 163837
17 | 36:24:38 | 03:04:54 | 163838 | 177691
18 | 39:29:17 | 01:31:73 | 177692 | 184589
19 | 41:01:15 | 01:26:12 | 184590 | 191051
20 | 42:27:27 | 03:02:39 | 191052 | 204740
21 | 45:29:66 | 00:26:20 | 204741 | 206710
22 | 45:56:11 | 02:19:57 | 206711 | 217192
23 | 48:15:68 | 02:37:34 | 217193 | 229001
24 | 50:53:27 | 00:41:24 | 229002 | 232100
25 | 51:34:51 | 01:53:11 | 232101 | 240586
26 | 53:27:62 | 03:11:20 | 240587 | 254931
27 | 56:39:07 | 01:58:17 | 254932 | 263798
28 | 58:37:24 | 02:51:25 | 263799 | 276648
29 | 61:28:49 | 02:16:08 | 276649 | 286856
30 | 63:44:57 | 03:22:32 | 286857 | 302038
31 | 67:07:14 | 02:03:74 | 302039 | 311337
32 | 69:11:13 | 04:27:09 | 311338 | 331371
33 | 73:38:22 | 00:51:56 | 331372 | 335252
34 | 74:30:03 | 02:39:72 | 335253 | 347249
AccurateRip Summary (DiscID: 005e17fb-08a127bd-fa121622)
Track 01 : OK (v1+v2, confidence 7/7)
Track 02 : OK (v1+v2, confidence 7/7)
Track 03 : OK (v1+v2, confidence 7/7)
Track 04 : OK (v1+v2, confidence 7/7)
Track 05 : OK (v1+v2, confidence 7/7)
Track 06 : OK (v1+v2, confidence 7/7)
Track 07 : OK (v1+v2, confidence 7/7)
Track 08 : OK (v1+v2, confidence 7/7)
Track 09 : OK (v1+v2, confidence 7/7)
Track 10 : OK (v1+v2, confidence 7/7)
Track 11 : OK (v1+v2, confidence 7/7)
Track 12 : OK (v1+v2, confidence 7/7)
Track 13 : OK (v1+v2, confidence 7/7)
Track 14 : OK (v1+v2, confidence 7/7)
Track 15 : OK (v1+v2, confidence 7/7)
Track 16 : OK (v1+v2, confidence 7/7)
Track 17 : OK (v1+v2, confidence 7/7)
Track 18 : OK (v1+v2, confidence 7/7)
Track 19 : OK (v1+v2, confidence 7/7)
Track 20 : OK (v1+v2, confidence 7/7)
Track 21 : OK (v1+v2, confidence 7/7)
Track 22 : OK (v1+v2, confidence 7/7)
Track 23 : OK (v1+v2, confidence 7/7)
Track 24 : OK (v1+v2, confidence 7/7)
Track 25 : OK (v1+v2, confidence 6/6)
Track 26 : OK (v1+v2, confidence 7/7)
Track 27 : OK (v1+v2, confidence 6/6)
Track 28 : OK (v1+v2, confidence 6/6)
Track 29 : OK (v1+v2, confidence 6/6)
Track 30 : OK (v1+v2, confidence 6/6)
Track 31 : OK (v1+v2, confidence 6/6)
Track 32 : OK (v1+v2, confidence 6/6)
Track 33 : OK (v1+v2, confidence 6/6)
Track 34 : OK (v1+v2, confidence 6/6)
->All tracks accurately ripped.
All Tracks
Filename : /Users/Juan/Downloads/GRosAdediBorGCar/Adelaide di Borgogna Disc 1.flac
CRC32 hash : D08858E7
CRC32 hash (skip zero) : 6C797BA4
Statistics
Read error : 0
Jitter error (maybe fixed) : 0
Retry sector count : 0
Damaged sector count : 0
Track 01
Pre-gap length : 00:02:00
CRC32 hash : 5BDB9604
CRC32 hash (skip zero) : EA2C7F82
AccurateRip v1 signature : D7803019
AccurateRip v2 signature : C534F57C
->Accurately ripped (v1+v2, confidence 4+3/7)
Statistics
Read error : 0
Jitter error (maybe fixed) : 0
Retry sector count : 0
Damaged sector count : 0
Track 02
CRC32 hash : 9CD42817
CRC32 hash (skip zero) : 225950E5
AccurateRip v1 signature : 06263CAB
AccurateRip v2 signature : 8EF9EACB
->Accurately ripped (v1+v2, confidence 4+3/7)
Statistics
Read error : 0
Jitter error (maybe fixed) : 0
Retry sector count : 0
Damaged sector count : 0
Track 03
CRC32 hash : 006D1DE4
CRC32 hash (skip zero) : 02814376
AccurateRip v1 signature : C811CD48
AccurateRip v2 signature : C427AE71
->Accurately ripped (v1+v2, confidence 4+3/7)
Statistics
Read error : 0
Jitter error (maybe fixed) : 0
Retry sector count : 0
Damaged sector count : 0
Track 04
CRC32 hash : 5F1A8286
CRC32 hash (skip zero) : 75A3FE2C
AccurateRip v1 signature : 7C2C1420
AccurateRip v2 signature : BC848AC3
->Accurately ripped (v1+v2, confidence 4+3/7)
Statistics
Read error : 0
Jitter error (maybe fixed) : 0
Retry sector count : 0
Damaged sector count : 0
Track 05
CRC32 hash : A2C7CF20
CRC32 hash (skip zero) : 49D2886E
AccurateRip v1 signature : 1D9D2D22
AccurateRip v2 signature : C3E2F42D
->Accurately ripped (v1+v2, confidence 4+3/7)
Statistics
Read error : 0
Jitter error (maybe fixed) : 0
Retry sector count : 0
Damaged sector count : 0
Track 06
CRC32 hash : 1809310D
CRC32 hash (skip zero) : FE962C35
AccurateRip v1 signature : 27C4226D
AccurateRip v2 signature : 844C58EE
->Accurately ripped (v1+v2, confidence 4+3/7)
Statistics
Read error : 0
Jitter error (maybe fixed) : 0
Retry sector count : 0
Damaged sector count : 0
Track 07
CRC32 hash : 4869A42D
CRC32 hash (skip zero) : 2FE1C319
AccurateRip v1 signature : 3D4D69CD
AccurateRip v2 signature : 637A3075
->Accurately ripped (v1+v2, confidence 4+3/7)
Statistics
Read error : 0
Jitter error (maybe fixed) : 0
Retry sector count : 0
Damaged sector count : 0
Track 08
CRC32 hash : 2897F3D2
CRC32 hash (skip zero) : 4DAD94CF
AccurateRip v1 signature : 6D489C72
AccurateRip v2 signature : 4964FC91
->Accurately ripped (v1+v2, confidence 4+3/7)
Statistics
Read error : 0
Jitter error (maybe fixed) : 0
Retry sector count : 0
Damaged sector count : 0
Track 09
CRC32 hash : ED276557
CRC32 hash (skip zero) : 61B74D40
AccurateRip v1 signature : 9AA52D62
AccurateRip v2 signature : F7EDC3F4
->Accurately ripped (v1+v2, confidence 4+3/7)
Statistics
Read error : 0
Jitter error (maybe fixed) : 0
Retry sector count : 0
Damaged sector count : 0
Track 10
CRC32 hash : 26D1DCB4
CRC32 hash (skip zero) : 09C960E0
AccurateRip v1 signature : 903849DA
AccurateRip v2 signature : CC0F548D
->Accurately ripped (v1+v2, confidence 4+3/7)
Statistics
Read error : 0
Jitter error (maybe fixed) : 0
Retry sector count : 0
Damaged sector count : 0
Track 11
CRC32 hash : E700D02F
CRC32 hash (skip zero) : 2FB4CB19
AccurateRip v1 signature : ADC16CCC
AccurateRip v2 signature : 4920B226
->Accurately ripped (v1+v2, confidence 4+3/7)
Statistics
Read error : 0
Jitter error (maybe fixed) : 0
Retry sector count : 0
Damaged sector count : 0
Track 12
CRC32 hash : 010CBBC8
CRC32 hash (skip zero) : B3E377DF
AccurateRip v1 signature : 9FEF0F25
AccurateRip v2 signature : A10610BA
->Accurately ripped (v1+v2, confidence 4+3/7)
Statistics
Read error : 0
Jitter error (maybe fixed) : 0
Retry sector count : 0
Damaged sector count : 0
Track 13
CRC32 hash : 788974F9
CRC32 hash (skip zero) : 1B55350C
AccurateRip v1 signature : A5E296A2
AccurateRip v2 signature : 935CC6AA
->Accurately ripped (v1+v2, confidence 4+3/7)
Statistics
Read error : 0
Jitter error (maybe fixed) : 0
Retry sector count : 0
Damaged sector count : 0
Track 14
CRC32 hash : 66E297AF
CRC32 hash (skip zero) : B62C15ED
AccurateRip v1 signature : 0C9B9807
AccurateRip v2 signature : 7BDB4EA2
->Accurately ripped (v1+v2, confidence 4+3/7)
Statistics
Read error : 0
Jitter error (maybe fixed) : 0
Retry sector count : 0
Damaged sector count : 0
Track 15
CRC32 hash : 0E0DF90D
CRC32 hash (skip zero) : 741CDCCE
AccurateRip v1 signature : CAED7112
AccurateRip v2 signature : 04A91701
->Accurately ripped (v1+v2, confidence 4+3/7)
Statistics
Read error : 0
Jitter error (maybe fixed) : 0
Retry sector count : 0
Damaged sector count : 0
Track 16
CRC32 hash : E39D14CC
CRC32 hash (skip zero) : 3EFF8C70
AccurateRip v1 signature : 3041A123
AccurateRip v2 signature : 6E4BD7E2
->Accurately ripped (v1+v2, confidence 4+3/7)
Statistics
Read error : 0
Jitter error (maybe fixed) : 0
Retry sector count : 0
Damaged sector count : 0
Track 17
CRC32 hash : 4D3E5326
CRC32 hash (skip zero) : 49EB6085
AccurateRip v1 signature : 89677476
AccurateRip v2 signature : 3DBFBE34
->Accurately ripped (v1+v2, confidence 4+3/7)
Statistics
Read error : 0
Jitter error (maybe fixed) : 0
Retry sector count : 0
Damaged sector count : 0
Track 18
CRC32 hash : 24840B1D
CRC32 hash (skip zero) : E975E837
AccurateRip v1 signature : 845CE6C3
AccurateRip v2 signature : CF1CB09B
->Accurately ripped (v1+v2, confidence 4+3/7)
Statistics
Read error : 0
Jitter error (maybe fixed) : 0
Retry sector count : 0
Damaged sector count : 0
Track 19
CRC32 hash : D37703CA
CRC32 hash (skip zero) : 31720D5A
AccurateRip v1 signature : F84FC2F7
AccurateRip v2 signature : E02FFC87
->Accurately ripped (v1+v2, confidence 4+3/7)
Statistics
Read error : 0
Jitter error (maybe fixed) : 0
Retry sector count : 0
Damaged sector count : 0
Track 20
CRC32 hash : 23BF9914
CRC32 hash (skip zero) : 12165BAB
AccurateRip v1 signature : B047FFBF
AccurateRip v2 signature : 01D3A684
->Accurately ripped (v1+v2, confidence 4+3/7)
Statistics
Read error : 0
Jitter error (maybe fixed) : 0
Retry sector count : 0
Damaged sector count : 0
Track 21
CRC32 hash : 03671EBF
CRC32 hash (skip zero) : 6A03FCED
AccurateRip v1 signature : CBB094A8
AccurateRip v2 signature : 824404BC
->Accurately ripped (v1+v2, confidence 4+3/7)
Statistics
Read error : 0
Jitter error (maybe fixed) : 0
Retry sector count : 0
Damaged sector count : 0
Track 22
CRC32 hash : 67A93697
CRC32 hash (skip zero) : 55E326A8
AccurateRip v1 signature : 7DE82A98
AccurateRip v2 signature : C180B7DE
->Accurately ripped (v1+v2, confidence 4+3/7)
Statistics
Read error : 0
Jitter error (maybe fixed) : 0
Retry sector count : 0
Damaged sector count : 0
Track 23
CRC32 hash : BDC8D600
CRC32 hash (skip zero) : 9F13F031
AccurateRip v1 signature : 0C1FFF57
AccurateRip v2 signature : DEEACBF2
->Accurately ripped (v1+v2, confidence 4+3/7)
Statistics
Read error : 0
Jitter error (maybe fixed) : 0
Retry sector count : 0
Damaged sector count : 0
Track 24
CRC32 hash : EB2D2485
CRC32 hash (skip zero) : B8DD2BE1
AccurateRip v1 signature : D069A482
AccurateRip v2 signature : EFCFB491
->Accurately ripped (v1+v2, confidence 4+3/7)
Statistics
Read error : 0
Jitter error (maybe fixed) : 0
Retry sector count : 0
Damaged sector count : 0
Track 25
CRC32 hash : C240B362
CRC32 hash (skip zero) : 075173A2
AccurateRip v1 signature : 744AE53E
AccurateRip v2 signature : 5DA2F354
->Accurately ripped (v1+v2, confidence 3+3/6)
Statistics
Read error : 0
Jitter error (maybe fixed) : 0
Retry sector count : 0
Damaged sector count : 0
Track 26
CRC32 hash : EE322F26
CRC32 hash (skip zero) : FAE87606
AccurateRip v1 signature : 00D0D047
AccurateRip v2 signature : AC6C6CA3
->Accurately ripped (v1+v2, confidence 4+3/7)
Statistics
Read error : 0
Jitter error (maybe fixed) : 0
Retry sector count : 0
Damaged sector count : 0
Track 27
CRC32 hash : 222F84A8
CRC32 hash (skip zero) : C65C8983
AccurateRip v1 signature : 88F4A0F6
AccurateRip v2 signature : DD209C8F
->Accurately ripped (v1+v2, confidence 4+2/6)
Statistics
Read error : 0
Jitter error (maybe fixed) : 0
Retry sector count : 0
Damaged sector count : 0
Track 28
CRC32 hash : 398FF2B8
CRC32 hash (skip zero) : 9CA48F61
AccurateRip v1 signature : 347E3146
AccurateRip v2 signature : 58CEF40D
->Accurately ripped (v1+v2, confidence 4+2/6)
Statistics
Read error : 0
Jitter error (maybe fixed) : 0
Retry sector count : 0
Damaged sector count : 0
Track 29
CRC32 hash : 42B58426
CRC32 hash (skip zero) : DC8AA2BB
AccurateRip v1 signature : 720797E7
AccurateRip v2 signature : 8E0AE9E8
->Accurately ripped (v1+v2, confidence 4+2/6)
Statistics
Read error : 0
Jitter error (maybe fixed) : 0
Retry sector count : 0
Damaged sector count : 0
Track 30
CRC32 hash : BE05B4C7
CRC32 hash (skip zero) : 607FDB3A
AccurateRip v1 signature : 02B317B2
AccurateRip v2 signature : A638005C
->Accurately ripped (v1+v2, confidence 4+2/6)
Statistics
Read error : 0
Jitter error (maybe fixed) : 0
Retry sector count : 0
Damaged sector count : 0
Track 31
CRC32 hash : E521DF58
CRC32 hash (skip zero) : 44768D4D
AccurateRip v1 signature : 3FB4F6DB
AccurateRip v2 signature : FE0A5E75
->Accurately ripped (v1+v2, confidence 4+2/6)
Statistics
Read error : 0
Jitter error (maybe fixed) : 0
Retry sector count : 0
Damaged sector count : 0
Track 32
CRC32 hash : 5DC51CD3
CRC32 hash (skip zero) : 4713B527
AccurateRip v1 signature : 2A6982E1
AccurateRip v2 signature : 95EEF2D7
->Accurately ripped (v1+v2, confidence 4+2/6)
Statistics
Read error : 0
Jitter error (maybe fixed) : 0
Retry sector count : 0
Damaged sector count : 0
Track 33
CRC32 hash : 4C8105DD
CRC32 hash (skip zero) : 3CF6DF68
AccurateRip v1 signature : B6D2FC8D
AccurateRip v2 signature : 1BDE4AAC
->Accurately ripped (v1+v2, confidence 4+2/6)
Statistics
Read error : 0
Jitter error (maybe fixed) : 0
Retry sector count : 0
Damaged sector count : 0
Track 34
CRC32 hash : 10ECC613
CRC32 hash (skip zero) : EB3A993E
AccurateRip v1 signature : B7375043
AccurateRip v2 signature : 6E8BA2EE
->Accurately ripped (v1+v2, confidence 4+2/6)
Statistics
Read error : 0
Jitter error (maybe fixed) : 0
Retry sector count : 0
Damaged sector count : 0
No errors occurred
End of status report

Лог создания рипа CD 2

X Lossless Decoder version 20141129 (148.1)
XLD extraction logfile from 2015-03-30 19:20:27 +0100
Giuliano Carella / Adelaide di Borgogna Disc 2
Used drive : MATSHITA DVD-R UJ-8A8 (revision HB14)
Media type : Pressed CD
Ripper mode : XLD Secure Ripper
Disable audio cache : OK for the drive with a cache less than 1375KiB
Make use of C2 pointers : NO
Read offset correction : 102
Max retry count : 20
Gap status : Analyzed, Appended
TOC of the extracted CD
Track | Start | Length | Start sector | End sector
---------------------------------------------------------
1 | 00:00:00 | 01:39:02 | 0 | 7426
2 | 01:39:02 | 02:29:20 | 7427 | 18621
3 | 04:08:22 | 02:04:15 | 18622 | 27936
4 | 06:12:37 | 01:19:19 | 27937 | 33880
5 | 07:31:56 | 00:49:03 | 33881 | 37558
6 | 08:20:59 | 01:37:71 | 37559 | 44904
7 | 09:58:55 | 00:31:34 | 44905 | 47263
8 | 10:30:14 | 00:52:35 | 47264 | 51198
9 | 11:22:49 | 02:16:64 | 51199 | 61462
10 | 13:39:38 | 00:20:33 | 61463 | 62995
11 | 13:59:71 | 00:50:40 | 62996 | 66785
12 | 14:50:36 | 04:46:23 | 66786 | 88258
13 | 19:36:59 | 03:49:03 | 88259 | 105436
14 | 23:25:62 | 01:42:36 | 105437 | 113122
15 | 25:08:23 | 04:18:32 | 113123 | 132504
16 | 29:26:55 | 02:18:34 | 132505 | 142888
17 | 31:45:14 | 01:14:35 | 142889 | 148473
18 | 32:59:49 | 03:03:48 | 148474 | 162246
19 | 36:03:22 | 02:31:69 | 162247 | 173640
20 | 38:35:16 | 03:23:50 | 173641 | 188915
21 | 41:58:66 | 03:06:07 | 188916 | 202872
22 | 45:04:73 | 02:49:30 | 202873 | 215577
23 | 47:54:28 | 00:45:36 | 215578 | 218988
24 | 48:39:64 | 03:22:00 | 218989 | 234138
AccurateRip Summary (DiscID: 002779e5-02c48ab7-310c3118)
Track 01 : OK (v1+v2, confidence 7/7)
Track 02 : OK (v1+v2, confidence 7/7)
Track 03 : OK (v1+v2, confidence 7/7)
Track 04 : OK (v1+v2, confidence 7/7)
Track 05 : OK (v1+v2, confidence 7/7)
Track 06 : OK (v1+v2, confidence 7/7)
Track 07 : OK (v1+v2, confidence 7/7)
Track 08 : OK (v1+v2, confidence 7/7)
Track 09 : OK (v1+v2, confidence 7/7)
Track 10 : OK (v1+v2, confidence 7/7)
Track 11 : OK (v1+v2, confidence 7/7)
Track 12 : OK (v1+v2, confidence 7/7)
Track 13 : OK (v1+v2, confidence 7/7)
Track 14 : OK (v1+v2, confidence 7/7)
Track 15 : OK (v1+v2, confidence 7/7)
Track 16 : OK (v1+v2, confidence 7/7)
Track 17 : OK (v1+v2, confidence 7/7)
Track 18 : OK (v1+v2, confidence 7/7)
Track 19 : OK (v1+v2, confidence 7/7)
Track 20 : OK (v1+v2, confidence 7/7)
Track 21 : OK (v1+v2, confidence 7/7)
Track 22 : OK (v1+v2, confidence 7/7)
Track 23 : OK (v1+v2, confidence 7/7)
Track 24 : OK (v1+v2, confidence 7/7)
->All tracks accurately ripped.
All Tracks
Filename : /Users/Juan/Downloads/GRosAdediBorGCar/Adelaide di Borgogna Disc 2.flac
CRC32 hash : 051DB550
CRC32 hash (skip zero) : CC836077
Statistics
Read error : 0
Jitter error (maybe fixed) : 0
Retry sector count : 0
Damaged sector count : 0
Track 01
Pre-gap length : 00:02:00
CRC32 hash : D82E41F5
CRC32 hash (skip zero) : C9ED5CBC
AccurateRip v1 signature : 28004B5C
AccurateRip v2 signature : 2421EB9D
->Accurately ripped (v1+v2, confidence 4+3/7)
Statistics
Read error : 0
Jitter error (maybe fixed) : 0
Retry sector count : 0
Damaged sector count : 0
Track 02
CRC32 hash : E9FECF12
CRC32 hash (skip zero) : 4A2F7E02
AccurateRip v1 signature : 3B98BB0D
AccurateRip v2 signature : AFC1C2BC
->Accurately ripped (v1+v2, confidence 4+3/7)
Statistics
Read error : 0
Jitter error (maybe fixed) : 0
Retry sector count : 0
Damaged sector count : 0
Track 03
CRC32 hash : 4C1690E9
CRC32 hash (skip zero) : 98FEF877
AccurateRip v1 signature : D45C9116
AccurateRip v2 signature : 05185B6D
->Accurately ripped (v1+v2, confidence 4+3/7)
Statistics
Read error : 0
Jitter error (maybe fixed) : 0
Retry sector count : 0
Damaged sector count : 0
Track 04
CRC32 hash : 1E525B1D
CRC32 hash (skip zero) : 04ACF7A4
AccurateRip v1 signature : 03F4E6B9
AccurateRip v2 signature : 68CEA5EF
->Accurately ripped (v1+v2, confidence 4+3/7)
Statistics
Read error : 0
Jitter error (maybe fixed) : 0
Retry sector count : 0
Damaged sector count : 0
Track 05
CRC32 hash : 50A2E9F0
CRC32 hash (skip zero) : C526F2EE
AccurateRip v1 signature : 3BE038F5
AccurateRip v2 signature : 09EDE674
->Accurately ripped (v1+v2, confidence 4+3/7)
Statistics
Read error : 0
Jitter error (maybe fixed) : 0
Retry sector count : 0
Damaged sector count : 0
Track 06
CRC32 hash : B92073BD
CRC32 hash (skip zero) : F22AACB2
AccurateRip v1 signature : CF16703A
AccurateRip v2 signature : F56FB26D
->Accurately ripped (v1+v2, confidence 4+3/7)
Statistics
Read error : 0
Jitter error (maybe fixed) : 0
Retry sector count : 0
Damaged sector count : 0
Track 07
CRC32 hash : 696EA084
CRC32 hash (skip zero) : 90F8AB09
AccurateRip v1 signature : 76AA0860
AccurateRip v2 signature : 6CEFAF25
->Accurately ripped (v1+v2, confidence 4+3/7)
Statistics
Read error : 0
Jitter error (maybe fixed) : 0
Retry sector count : 0
Damaged sector count : 0
Track 08
CRC32 hash : 6AC9D0D9
CRC32 hash (skip zero) : 5F6CA84A
AccurateRip v1 signature : 53444201
AccurateRip v2 signature : E60F2AD0
->Accurately ripped (v1+v2, confidence 4+3/7)
Statistics
Read error : 0
Jitter error (maybe fixed) : 0
Retry sector count : 0
Damaged sector count : 0
Track 09
CRC32 hash : 3243BE91
CRC32 hash (skip zero) : 420733F0
AccurateRip v1 signature : E1084FE4
AccurateRip v2 signature : 2D765C04
->Accurately ripped (v1+v2, confidence 4+3/7)
Statistics
Read error : 0
Jitter error (maybe fixed) : 0
Retry sector count : 0
Damaged sector count : 0
Track 10
CRC32 hash : 1E7ECC69
CRC32 hash (skip zero) : 02782BB3
AccurateRip v1 signature : FC0E29E0
AccurateRip v2 signature : 900E9782
->Accurately ripped (v1+v2, confidence 4+3/7)
Statistics
Read error : 0
Jitter error (maybe fixed) : 0
Retry sector count : 0
Damaged sector count : 0
Track 11
CRC32 hash : 63500D33
CRC32 hash (skip zero) : 78F9E44A
AccurateRip v1 signature : 035E06EE
AccurateRip v2 signature : 2D003A20
->Accurately ripped (v1+v2, confidence 4+3/7)
Statistics
Read error : 0
Jitter error (maybe fixed) : 0
Retry sector count : 0
Damaged sector count : 0
Track 12
CRC32 hash : D6497206
CRC32 hash (skip zero) : B21237B1
AccurateRip v1 signature : 1A980E2E
AccurateRip v2 signature : 5C3BD080
->Accurately ripped (v1+v2, confidence 4+3/7)
Statistics
Read error : 0
Jitter error (maybe fixed) : 0
Retry sector count : 0
Damaged sector count : 0
Track 13
CRC32 hash : 0BCA42AD
CRC32 hash (skip zero) : D31CE427
AccurateRip v1 signature : 2AEFD600
AccurateRip v2 signature : 13FDBE7E
->Accurately ripped (v1+v2, confidence 4+3/7)
Statistics
Read error : 0
Jitter error (maybe fixed) : 0
Retry sector count : 0
Damaged sector count : 0
Track 14
CRC32 hash : A78EC229
CRC32 hash (skip zero) : D01FF4BC
AccurateRip v1 signature : FC5851D6
AccurateRip v2 signature : 59DCF93C
->Accurately ripped (v1+v2, confidence 4+3/7)
Statistics
Read error : 0
Jitter error (maybe fixed) : 0
Retry sector count : 0
Damaged sector count : 0
Track 15
CRC32 hash : 3E6A5EB1
CRC32 hash (skip zero) : FDF2F3A7
AccurateRip v1 signature : 32DE2602
AccurateRip v2 signature : 7FC0C97B
->Accurately ripped (v1+v2, confidence 4+3/7)
Statistics
Read error : 0
Jitter error (maybe fixed) : 0
Retry sector count : 0
Damaged sector count : 0
Track 16
CRC32 hash : B62B76B2
CRC32 hash (skip zero) : 7303CC0D
AccurateRip v1 signature : 931C92E3
AccurateRip v2 signature : 214AC2BD
->Accurately ripped (v1+v2, confidence 4+3/7)
Statistics
Read error : 0
Jitter error (maybe fixed) : 0
Retry sector count : 0
Damaged sector count : 0
Track 17
CRC32 hash : D2CDD249
CRC32 hash (skip zero) : 9970D871
AccurateRip v1 signature : BE12851B
AccurateRip v2 signature : 29AB9A05
->Accurately ripped (v1+v2, confidence 4+3/7)
Statistics
Read error : 0
Jitter error (maybe fixed) : 0
Retry sector count : 0
Damaged sector count : 0
Track 18
CRC32 hash : B5CD8FAA
CRC32 hash (skip zero) : A27B3756
AccurateRip v1 signature : 70127AD9
AccurateRip v2 signature : 29DD5101
->Accurately ripped (v1+v2, confidence 4+3/7)
Statistics
Read error : 0
Jitter error (maybe fixed) : 0
Retry sector count : 0
Damaged sector count : 0
Track 19
CRC32 hash : 8E6566E9
CRC32 hash (skip zero) : CD252432
AccurateRip v1 signature : 896F3B9C
AccurateRip v2 signature : 34AC899B
->Accurately ripped (v1+v2, confidence 4+3/7)
Statistics
Read error : 0
Jitter error (maybe fixed) : 0
Retry sector count : 0
Damaged sector count : 0
Track 20
CRC32 hash : E616D3FB
CRC32 hash (skip zero) : D18FA08A
AccurateRip v1 signature : 4FBEC177
AccurateRip v2 signature : 6C983A26
->Accurately ripped (v1+v2, confidence 4+3/7)
Statistics
Read error : 0
Jitter error (maybe fixed) : 0
Retry sector count : 0
Damaged sector count : 0
Track 21
CRC32 hash : 0C1E53B9
CRC32 hash (skip zero) : 2B6C3239
AccurateRip v1 signature : 67C20AEF
AccurateRip v2 signature : D61B1993
->Accurately ripped (v1+v2, confidence 4+3/7)
Statistics
Read error : 0
Jitter error (maybe fixed) : 0
Retry sector count : 0
Damaged sector count : 0
Track 22
CRC32 hash : DEB209F7
CRC32 hash (skip zero) : 48DFFFEA
AccurateRip v1 signature : 8B0E1C6A
AccurateRip v2 signature : 214F9EFE
->Accurately ripped (v1+v2, confidence 4+3/7)
Statistics
Read error : 0
Jitter error (maybe fixed) : 0
Retry sector count : 0
Damaged sector count : 0
Track 23
CRC32 hash : 1DCDB3A8
CRC32 hash (skip zero) : 4D38A7F9
AccurateRip v1 signature : 9D055A0F
AccurateRip v2 signature : 0359B7B9
->Accurately ripped (v1+v2, confidence 4+3/7)
Statistics
Read error : 0
Jitter error (maybe fixed) : 0
Retry sector count : 0
Damaged sector count : 0
Track 24
CRC32 hash : 52224330
CRC32 hash (skip zero) : 9D43EE8A
AccurateRip v1 signature : AB1EDC6C
AccurateRip v2 signature : 77E8DA72
->Accurately ripped (v1+v2, confidence 4+3/7)
Statistics
Read error : 0
Jitter error (maybe fixed) : 0
Retry sector count : 0
Damaged sector count : 0
No errors occurred
End of status report

Содержание индексной карты (.CUE)Содержание индексной карты (.CUE) - CD 1

TITLE "Adelaide di Borgogna Disc 1"
PERFORMER "Giuliano Carella"
REM GENRE "Opera"
REM DISCID FA121622
FILE "Adelaide di Borgogna Disc 1.flac" WAVE
TRACK 01 AUDIO
TITLE "Act I - Sinfonia"
SONGWRITER "Gioachino Rossini"
INDEX 01 00:00:00
TRACK 02 AUDIO
TITLE "Misera patria oppressa (introd.)"
SONGWRITER "Gioachino Rossini"
INDEX 01 05:53:56
TRACK 03 AUDIO
TITLE "Lasciami: in te del padre"
SONGWRITER "Gioachino Rossini"
INDEX 01 08:05:00
TRACK 04 AUDIO
TITLE "Dio, che m'ami in tal cimento"
SONGWRITER "Gioachino Rossini"
INDEX 01 10:49:27
TRACK 05 AUDIO
TITLE "Ah! crudel, non lusingarti"
SONGWRITER "Gioachino Rossini"
INDEX 01 12:43:13
TRACK 06 AUDIO
TITLE "Nostra è l'Italia (rec.)"
SONGWRITER "Gioachino Rossini"
INDEX 01 15:12:50
TRACK 07 AUDIO
TITLE "Salve, Italia, un di regnante (coro)"
SONGWRITER "Gioachino Rossini"
INDEX 01 16:19:17
TRACK 08 AUDIO
TITLE "Oh sacra alla virtu (scena)"
SONGWRITER "Gioachino Rossini"
INDEX 01 17:58:74
TRACK 09 AUDIO
TITLE "Soffri la tua sventura (cavatina)"
SONGWRITER "Gioachino Rossini"
INDEX 01 19:45:29
TRACK 10 AUDIO
TITLE "Amica speme"
SONGWRITER "Gioachino Rossini"
INDEX 01 22:14:41
TRACK 11 AUDIO
TITLE "Signor, al campo è giunto (rec.)"
SONGWRITER "Gioachino Rossini"
INDEX 01 25:15:06
TRACK 12 AUDIO
TITLE "Vive Adelaide in pianto (duetto)"
SONGWRITER "Gioachino Rossini"
INDEX 01 27:49:54
TRACK 13 AUDIO
TITLE "Non deponiamo il brando"
SONGWRITER "Gioachino Rossini"
INDEX 01 30:23:09
TRACK 14 AUDIO
TITLE "Amico ricetto"
SONGWRITER "Gioachino Rossini"
INDEX 01 31:58:13
TRACK 15 AUDIO
TITLE "Cadde nel laccio Ottone (rec.)"
SONGWRITER "Gioachino Rossini"
INDEX 01 33:50:41
TRACK 16 AUDIO
TITLE "Viva Ottone, il grande, il forte (coro e cavatina)"
SONGWRITER "Gioachino Rossini"
INDEX 01 34:54:72
TRACK 17 AUDIO
TITLE "Vedi, signor¿ (rec.)"
SONGWRITER "Gioachino Rossini"
INDEX 01 36:24:38
TRACK 18 AUDIO
TITLE "Plauda il mondo in si bel giorno (coro e cav.)"
SONGWRITER "Gioachino Rossini"
INDEX 01 39:29:17
TRACK 19 AUDIO
TITLE "Tacer! sempre tacer! (rec.)"
SONGWRITER "Gioachino Rossini"
INDEX 01 41:01:15
TRACK 20 AUDIO
TITLE "Se protegge amica sorte"
SONGWRITER "Gioachino Rossini"
INDEX 01 42:27:27
TRACK 21 AUDIO
TITLE "L'amor del figlio (aria)"
SONGWRITER "Gioachino Rossini"
INDEX 01 45:29:66
TRACK 22 AUDIO
TITLE "Vorrei distruggere"
SONGWRITER "Gioachino Rossini"
INDEX 01 45:56:11
TRACK 23 AUDIO
TITLE "O ritiro che soggiorno (coro)"
SONGWRITER "Gioachino Rossini"
INDEX 01 48:15:68
TRACK 24 AUDIO
TITLE "E fia pur ver"
SONGWRITER "Gioachino Rossini"
INDEX 01 50:53:27
TRACK 25 AUDIO
TITLE "Occhi miei, piangeste assai (cavatina)"
SONGWRITER "Gioachino Rossini"
INDEX 01 51:34:51
TRACK 26 AUDIO
TITLE "O cara immagine"
SONGWRITER "Gioachino Rossini"
INDEX 01 53:27:62
TRACK 27 AUDIO
TITLE "Pur mi lice una volta"
SONGWRITER "Gioachino Rossini"
INDEX 01 56:39:07
TRACK 28 AUDIO
TITLE "Mi dai corona e vita (duetto)"
SONGWRITER "Gioachino Rossini"
INDEX 01 58:37:24
TRACK 29 AUDIO
TITLE "Vieni al tempio"
SONGWRITER "Gioachino Rossini"
INDEX 01 61:28:49
TRACK 30 AUDIO
TITLE "Tu che i puri e casti affetti"
SONGWRITER "Gioachino Rossini"
INDEX 01 63:44:57
TRACK 31 AUDIO
TITLE "Schiudi le porte al tempio (finale primo)"
SONGWRITER "Gioachino Rossini"
INDEX 01 67:07:14
TRACK 32 AUDIO
TITLE "O degl'itali regnanti"
SONGWRITER "Gioachino Rossini"
INDEX 01 69:11:13
TRACK 33 AUDIO
TITLE "Quale improvviso strepito"
SONGWRITER "Gioachino Rossini"
INDEX 01 73:38:22
TRACK 34 AUDIO
TITLE "Giunto è alfin di vendetta l'istante"
SONGWRITER "Gioachino Rossini"
INDEX 01 74:30:03

Содержание индексной карты (.CUE) - CD 2

TITLE "Adelaide di Borgogna Disc 2"
PERFORMER "Giuliano Carella"
REM GENRE "Opera"
REM DISCID 310C3118
FILE "Adelaide di Borgogna Disc 2.flac" WAVE
TRACK 01 AUDIO
TITLE "Act II - Come l'aquila che piomba (introd.)"
SONGWRITER "Gioachino Rossini"
INDEX 01 00:00:00
TRACK 02 AUDIO
TITLE "Vincemmo, o madre (rec.)"
SONGWRITER "Gioachino Rossini"
INDEX 01 01:39:02
TRACK 03 AUDIO
TITLE "Della tua patria ai voti (duetto)"
SONGWRITER "Gioachino Rossini"
INDEX 01 04:08:22
TRACK 04 AUDIO
TITLE "Oh rossore!"
SONGWRITER "Gioachino Rossini"
INDEX 01 06:12:37
TRACK 05 AUDIO
TITLE "Ah! signor, perduti siamo"
SONGWRITER "Gioachino Rossini"
INDEX 01 07:31:56
TRACK 06 AUDIO
TITLE "Quella gioia che in fronte ti brilla"
SONGWRITER "Gioachino Rossini"
INDEX 01 08:20:59
TRACK 07 AUDIO
TITLE "Vederti in pianto e non poterti mai (rec.)"
SONGWRITER "Gioachino Rossini"
INDEX 01 09:58:55
TRACK 08 AUDIO
TITLE "Lasciami- Invan mi preghi..."
SONGWRITER "Gioachino Rossini"
INDEX 01 10:30:14
TRACK 09 AUDIO
TITLE "Si, si, mi svena nel tuo furore"
SONGWRITER "Gioachino Rossini"
INDEX 01 11:22:49
TRACK 10 AUDIO
TITLE "fermati.. Non m'ascolta.. Ah! chi"
SONGWRITER "Gioachino Rossini"
INDEX 01 13:39:38
TRACK 11 AUDIO
TITLE "Berengario è nel periglio (scena)"
SONGWRITER "Gioachino Rossini"
INDEX 01 13:59:71
TRACK 12 AUDIO
TITLE "Grida, o natura, e desta (aria)"
SONGWRITER "Gioachino Rossini"
INDEX 01 14:50:36
TRACK 13 AUDIO
TITLE "Vieni- alla mia nemica (rec.)"
SONGWRITER "Gioachino Rossini"
INDEX 01 19:36:59
TRACK 14 AUDIO
TITLE "Adelaide!.. oh ciel! che vedo¿ (quartetto)"
SONGWRITER "Gioachino Rossini"
INDEX 01 23:25:62
TRACK 15 AUDIO
TITLE "Parti. Alle chiuse mura"
SONGWRITER "Gioachino Rossini"
INDEX 01 25:08:23
TRACK 16 AUDIO
TITLE "Compagni, a voi fidata (rec.)"
SONGWRITER "Gioachino Rossini"
INDEX 01 29:26:55
TRACK 17 AUDIO
TITLE "Ah! vanne... Addio... (scena)"
SONGWRITER "Gioachino Rossini"
INDEX 01 31:45:14
TRACK 18 AUDIO
TITLE "Cingi la benda candida (aria)"
SONGWRITER "Gioachino Rossini"
INDEX 01 32:59:49
TRACK 19 AUDIO
TITLE "Se grate son le lagrime"
SONGWRITER "Gioachino Rossini"
INDEX 01 36:03:22
TRACK 20 AUDIO
TITLE "Temer un danno"
SONGWRITER "Gioachino Rossini"
INDEX 01 38:35:16
TRACK 21 AUDIO
TITLE "Serti intrecciar le vergini (coro)"
SONGWRITER "Gioachino Rossini"
INDEX 01 41:58:66
TRACK 22 AUDIO
TITLE "Vieni- tuo sposo e amante (aria)"
SONGWRITER "Gioachino Rossini"
INDEX 01 45:04:73
TRACK 23 AUDIO
TITLE "Al trono tuo primiero"
SONGWRITER "Gioachino Rossini"
INDEX 01 47:54:28
TRACK 24 AUDIO
TITLE "D'Imene il talamo"
SONGWRITER "Gioachino Rossini"
INDEX 01 48:39:64

Треклист

Disc 1:
Act I:
1. Sinfonia
2. Scene 1: Introduction: Misera patria oppressa (Populace, Soldiers, Berengario, Iroldo)
3. Scene 2: Introduction: Lasciami: in tel del padre (Adelaide, Berengario, Adelberto)
4. Scene 2: Introduction: Dio, che m'ami in tal cimento (Adelaide, Berengario, Adelbelto)
5. Scene 2: Introduction: Ah! crudel, non lusingarti (Adelberto, Adelaide, Berengariio, General Chorus) - Scene 3: Tu, che non hai coraggio (Berengario, Iroldo)
6. Scene 4: Recitative: Nostra e l'Italia (Berengario, Adelberto, Eurice)
7. Scene 5: Salve, Italia, un di regnante (Soldiers)
8. Scene 6: Scene: Oh sacra all virtu, sacra al valore (Ottone)
9. Scene 6: Cavatina: Soffri la tua sventura (Ottone)
10. Scene 6: Amica speme al cor mi dice (Ottone)
11. Scene 7: Recitative and Cavatina: Signor, al campo e giunto (Ernesto, Ottone, Adelberto)
12. Scene 7: Duet: Vive Adelaide in pianto (Ottone, Adelberto)
13. Scene 7: Duet: Noi deponiamo il brando (Adelberto, Ottone)
14. Scene 7: Duet: Amico ricetto io t'offro in Canosso (Adelberto, Ottone) - Scene 8: Alcun non giunge … (Eurice)
15. Scene 9: Recitative and Duet: Cadde nel laccio Ottone (Berengario, Eurice)
16. Scene 10: Cavatina: Viva Ottone, il grande, il forte (Iroldo, Soldiers)
17. Scene 10: Recitative and Cavatina: Vedi, signor? Non fra nemici tuoi (Berengario, Ottone) - Scene 11: Ecco quell'infelice (Adelaide, Ottone, Adelberto, Ottone)
18. Scene 11: Cavatina: Plauda il mondo in si bel giorno (Iroldo, Chorus)
19. Scene 12: Recitative: Tacer! sempre tacer! (Adelberto, Berengario)
20. Scene 12: Cavatina: Se protegge amica sorte (Berengario)
21. Scene 12: Aria: L'amor del figlio, ed il desio di regno (Eurice)
22. Scene 12: Aria: Vorrei distruggere del figlio i voti (Eurice)
23. Scene 13: O ritiro che soggiorno (Chorus)
24. Scene 13: Cavatina: E fia pur ver, che tanti affanni (Adelaide)
25. Scene 13: Cavatina: Occhi miei, piangeste assai (Adelaide)
26. Scene 13: Cavatina: O cara immagine (Adelaide)
27. Scene 14: Cavatina: Pur mi lice una volta (Iroldo, Adelaide, Ottone)
28. Scene 14: Duet: Mi dai corona e vita (Adelaide, Ottone)
29. Scene 14: Duet: Vieni al tempio, ah! (Ottone, Adelaide)
30. Scene 14: Duet: Tu che i puri e casti affetti (Ottone, Adelaide)
31. Scene 15: Finale: Schiudi le porte al tempio (Chorus, Adelberto, Berengario) - Scene 16: Ecce Adelaide e Ottone … (Adelberto, Berengario, Chorus)
32. Scene 16: Finale: O degli'itali regnanti (Ottone, Adelaide, Adelberto, Berengario)
33. Scene 16: Finale: Quale improvviso strepito! (Ottone, Adelaide, Adelberto, Berengario) - Scene 17: Signor, tu sei tradito (Ernesto, Adelberto, Ottone)
34. Scene 17: Finale: Giunto e alfin di vendetta l'istante (Adelberto, Berengario, Ottone)
Disc 2:
Act II:
1. Scene 1: Introduction: Come l'aquila che piomba (Chorus)
2. Scene 2: Recitative: Vincemmo, o madre (Adelberto, Eurice) - Scene 3: Torno, Adelaide, e torno (Adelberto, Adelaide)
3. Scene 3: Duet: Dell tua patria ai voti (Adelberto, Adelaide)
4. Scene 3: Duet: Oh rossore! (Adelberto, Adelaide)
5. Scene 4: Duet: Ah! signor, perduti siamo (Chorus, Adelaide, Adelberto)
6. Scene 4: Duet: Quella gioia che in fronte ti brilla (Adelberto, Adelaide)
7. Scene 5: Recitative and Duet: Vederti in pianto e non poterti mai (Iroldo)
8. Scene 6: Recitative and Duet: Lasciami: invan mi preghi … (Adelberto, Eurice)
9. Scene 6: Recitative and Duet: Si, si, mi svena nel tuo furore (Eurice)
10. Scene 7: Recitative and Duet: Fermati … Non m'ascolta (Adelberto)
11. Scene 7: Scene and Aria: Berengario e nel periglio (Chorus, Adelberto)
12. Scene 7: Scene and Aria: Grida, o natura, e desta (Adelberto, Chorus)
13. Scenes 8-12: Recitative: Vieni: alla mia nemica (Eurice, Irolde, Ernesto, Ottone, Berengario, Adelberto, Adelaide)
14. Scene 12: Quartet: Adelaide! … oh ciel! che vedo? (Ottone, Adelaide, Adelberto, Berengario)
15. Scene 12: Quartet: Parti. Alle chiuse mura (Ottone, Adelberto, Berengario, Adelaide)
16. Scenes 13-16: Recitative: Compagni, a voi fidata (Ernesto, Iroldo, Ottone, Adelaide)
17. Scene 16: Scene: Ah! vanne … Addio … (Adelaide)
18. Scene 16: Aria: Cingi la benda candida (Adelaide, Ottone)
19. Scene 16: Scene and Aria: Se grate son le lagrime (Adelaide, Chorus)
20. Scene 16: Scene and Aria: Temer un danno (Adelaide, Chorus)
21. Scene 17: Serti intrecciar le vergini (Chorus) - Scene the Last: Questi, che a me presenta (Ottone)
22. Scene 17: Vieni: tuo sposo e amante (Ottone, Adelaide, Adelberto, Berengario, Chorus)
23. Scene 17: Al trono tuo primiero (Ottone, Adelaide, Adelberto, Berengario)
24. Scene 17: D'Imene il talamo (Ottone, Adelaide, Adelberto, Berengario, Chorus)



Показать сообщения:    

Текущее время: 09-Дек 18:27

Часовой пояс: UTC + 3


Вы не можете начинать темы
Вы не можете отвечать на сообщения
Вы не можете редактировать свои сообщения
Вы не можете удалять свои сообщения
Вы не можете голосовать в опросах
Вы не можете прикреплять файлы к сообщениям
Вы не можете скачивать файлы