(Opera, Vocal) Leonard Warren - Verdi Baritone Arias (Otello, Rigoletto, Falstaff, Un Ballo in Maschera, La Traviata, Il Trovatore), 1955 - studio recording / 2013, FLAC (tracks+.cue), lossless


 

[Цитировать]

Leonard Warren - Verdi Baritone Arias (Otello, Rigoletto, Falstaff, Un Ballo in Maschera, La Traviata, Il Trovatore)
Жанр: Opera, Vocal
Страна-производитель диска: США
Год издания диска: 2013
Издатель (лейбл): Rca Victor, Sony Classical
Дата записи: 1955
Аудиокодек: FLAC
Тип рипа: tracks+.cue
Битрейт аудио: lossless
Продолжительность: 54:04
Источник: релизер (Guillermo)
Исполнители:
Leonard Warren, baritone,
Renato Cellini, Conductor (1-3, 5, 7),
Jonel Perlea, Conductor (4),
Pierre Monteux, Conductor (6),
Dimitri Mitropoulus, Conductor (8-9),
Vincenzo Belezza, Conductor (10-11),
RCA Victor Orchestra and Chorus (1-9),
Rome Opera House Orchestra (10-11).

Треклист

1. Otello Act I: ''Inaffia l'ugola!''
2. La forza del destino, Act III: ''Urna fatale''
3. Rigoletto, Act III: ''Cortigiani, vil razza dannata''
4. Otello, Act II: ''Era la notte''
5. II Trovatore, Act II: "Tutto è deserto... Il balen del suo sorriso.... Per me, ora fatale"
6. La Traviata, Act II: ''Di provenza il mar''
7. Rigoletto, Act I: 'Pari siamo'
8. A Masked Ball, Act III: ''Alla vita che t'arride''
9. A Masked Ball, Act III: "Alzati! la tuo figlio.... Eri tu che macchiavi"
10. Falstaff, Act II: ''E sogno? O realta?''
11. Otello, Act II: ''Credo in un Dio crudel!"

Лог создания рипа

Exact Audio Copy V1.0 beta 3 from 29. August 2011
EAC extraction logfile from 2. April 2015, 6:46
Leonard Warren / Verdi Bariton Arias
Used drive : HL-DT-STDVDRAM GH24NSC0 Adapter: 3 ID: 0
Read mode : Secure
Utilize accurate stream : Yes
Defeat audio cache : Yes
Make use of C2 pointers : Yes
Read offset correction : 6
Overread into Lead-In and Lead-Out : No
Fill up missing offset samples with silence : Yes
Delete leading and trailing silent blocks : Yes
Null samples used in CRC calculations : Yes
Used interface : Native Win32 interface for Win NT & 2000
Gap handling : Appended to previous track
Used output format : User Defined Encoder
Selected bitrate : 768 kBit/s
Quality : High
Add ID3 tag : No
Command line compressor : C:\Program Files (x86)\Exact Audio Copy\FLAC\FLAC.EXE
Additional command line options : -8 -V -T "ARTIST=%artist%" -T "TITLE=%title%" -T "ALBUM=%albumtitle%" -T "DATE=%year%" -T "TRACKNUMBER=%tracknr%" -T "GENRE=%genre%" -T "PERFORMER=%albuminterpret%" -T "COMPOSER=%composer%" %haslyrics%--tag-from-file=LYRICS="%lyricsfile%"%haslyrics% -T "ALBUMARTIST=%albumartist%" -T "DISCNUMBER=%cdnumber%" -T "TOTALDISCS=%totalcds%" -T "TOTALTRACKS=%numtracks%" -T "COMMENT=%comment%" %source% -o %dest%
TOC of the extracted CD
Track | Start | Length | Start sector | End sector
---------------------------------------------------------
1 | 0:00.00 | 4:02.11 | 0 | 18160
2 | 4:02.11 | 7:29.32 | 18161 | 51867
3 | 11:31.43 | 4:16.13 | 51868 | 71080
4 | 15:47.56 | 3:30.56 | 71081 | 86886
5 | 19:18.37 | 7:20.48 | 86887 | 119934
6 | 26:39.10 | 4:54.02 | 119935 | 141986
7 | 31:33.12 | 3:32.00 | 141987 | 157886
8 | 35:05.12 | 3:32.14 | 157887 | 173800
9 | 38:37.26 | 6:25.22 | 173801 | 202697
10 | 45:02.48 | 4:21.05 | 202698 | 222277
11 | 49:23.53 | 4:37.73 | 222278 | 243125
Track 1
Filename f:\Users\Guillermo\Desktop\EAC convertidos\01 Otello- Innaffiata l´ugola! (Brindisi).wav
Pre-gap length 0:00:02.00
Peak level 85.0 %
Extraction speed 1.5 X
Track quality 100.0 %
Test CRC D6C8108E
Copy CRC D6C8108E
Copy OK
Track 2
Filename f:\Users\Guillermo\Desktop\EAC convertidos\02 La forza del destino- Morir! Tremenda cosa!...Urna fataledel mio destino.wav
Pre-gap length 0:00:03.38
Peak level 75.2 %
Extraction speed 1.9 X
Track quality 100.0 %
Test CRC BB5B3806
Copy CRC BB5B3806
Copy OK
Track 3
Filename f:\Users\Guillermo\Desktop\EAC convertidos\03 Rigoletto- Cortigiani, vil razza dannata.wav
Pre-gap length 0:00:03.90
Peak level 88.9 %
Extraction speed 1.6 X
Track quality 99.9 %
Test CRC E04D445E
Copy CRC E04D445E
Copy OK
Track 4
Filename f:\Users\Guillermo\Desktop\EAC convertidos\04 Otello- Era la notte.wav
Pre-gap length 0:00:03.20
Peak level 84.4 %
Extraction speed 2.0 X
Track quality 100.0 %
Test CRC B4396ABB
Copy CRC B4396ABB
Copy OK
Track 5
Filename f:\Users\Guillermo\Desktop\EAC convertidos\05 Il trovatore- Tutto è deserto..Il balen del suo sorriso...Per me, ora fatale.wav
Pre-gap length 0:00:02.24
Peak level 77.0 %
Extraction speed 2.4 X
Track quality 100.0 %
Test CRC B7407728
Copy CRC B7407728
Copy OK
Track 6
Filename f:\Users\Guillermo\Desktop\EAC convertidos\06 La traviata- Di Provenza il mar, il suol.wav
Pre-gap length 0:00:02.29
Peak level 83.1 %
Extraction speed 2.5 X
Track quality 100.0 %
Test CRC F3A028A1
Copy CRC F3A028A1
Copy OK
Track 7
Filename f:\Users\Guillermo\Desktop\EAC convertidos\07 Rigoletto- Pari siamo!.wav
Pre-gap length 0:00:03.53
Peak level 79.6 %
Extraction speed 2.4 X
Track quality 100.0 %
Test CRC 12F14663
Copy CRC 12F14663
Copy OK
Track 8
Filename f:\Users\Guillermo\Desktop\EAC convertidos\08 Un ballo in maschera- Alla vita che t´arride.wav
Pre-gap length 0:00:03.24
Peak level 73.3 %
Extraction speed 2.5 X
Track quality 100.0 %
Test CRC 81EF6E38
Copy CRC 81EF6E38
Copy OK
Track 9
Filename f:\Users\Guillermo\Desktop\EAC convertidos\09 Un ballo in maschera- Alzati! la tuo figlio...Er tu che macchiavi.wav
Peak level 88.5 %
Extraction speed 2.9 X
Track quality 100.0 %
Test CRC BA350AB4
Copy CRC BA350AB4
Copy OK
Track 10
Filename f:\Users\Guillermo\Desktop\EAC convertidos\10 Fallstaff- È sogno O realtà.wav
Pre-gap length 0:00:03.28
Peak level 98.6 %
Extraction speed 2.9 X
Track quality 100.0 %
Test CRC 3C71F53F
Copy CRC 3C71F53F
Copy OK
Track 11
Filename f:\Users\Guillermo\Desktop\EAC convertidos\11 Otello- Cedo in un Dio crudel.wav
Pre-gap length 0:00:03.89
Peak level 99.0 %
Extraction speed 3.0 X
Track quality 100.0 %
Test CRC A70E7D8E
Copy CRC A70E7D8E
Copy OK
No errors occurred
End of status report
==== Log checksum BDD9CFC0826BDD786651D5E24BD7C7642814A84AADE234499CA5A38F12C967B3 ====

Содержание индексной карты (.CUE)

REM GENRE Opera
REM DATE 1955
REM DISCID 970CA90B
REM COMMENT "ExactAudioCopy v1.0b3"
FILE "01 Otello- Innaffiata lґugola! (Brindisi).wav" WAVE
TRACK 01 AUDIO
INDEX 01 00:00:00
TRACK 02 AUDIO
INDEX 00 03:58:57
FILE "02 La forza del destino- Morir! Tremenda cosa!...Urna fataledel mio destino.wav" WAVE
INDEX 01 00:00:00
TRACK 03 AUDIO
INDEX 00 07:25:39
FILE "03 Rigoletto- Cortigiani, vil razza dannata.wav" WAVE
INDEX 01 00:00:00
TRACK 04 AUDIO
INDEX 00 04:12:73
FILE "04 Otello- Era la notte.wav" WAVE
INDEX 01 00:00:00
TRACK 05 AUDIO
INDEX 00 03:28:38
FILE "05 Il trovatore- Tutto и deserto..Il balen del suo sorriso...Per me, ora fatale.wav" WAVE
INDEX 01 00:00:00
TRACK 06 AUDIO
INDEX 00 07:18:26
FILE "06 La traviata- Di Provenza il mar, il suol.wav" WAVE
INDEX 01 00:00:00
TRACK 07 AUDIO
INDEX 00 04:50:37
FILE "07 Rigoletto- Pari siamo!.wav" WAVE
INDEX 01 00:00:00
TRACK 08 AUDIO
INDEX 00 03:28:57
FILE "08 Un ballo in maschera- Alla vita che tґarride.wav" WAVE
INDEX 01 00:00:00
FILE "09 Un ballo in maschera- Alzati! la tuo figlio...Er tu che macchiavi.wav" WAVE
TRACK 09 AUDIO
INDEX 01 00:00:00
TRACK 10 AUDIO
INDEX 00 06:22:01
FILE "10 Fallstaff- И sogno O realtа.wav" WAVE
INDEX 01 00:00:00
TRACK 11 AUDIO
INDEX 00 04:17:13
FILE "11 Otello- Cedo in un Dio crudel.wav" WAVE
INDEX 01 00:00:00



Показать сообщения:    

Текущее время: 02-Дек 21:12

Часовой пояс: UTC + 3


Вы не можете начинать темы
Вы не можете отвечать на сообщения
Вы не можете редактировать свои сообщения
Вы не можете удалять свои сообщения
Вы не можете голосовать в опросах
Вы не можете прикреплять файлы к сообщениям
Вы не можете скачивать файлы