[TR24][OF] Maria Callas - Callas sings Operatic Arias by Puccini [1954] (Maria Callas, Philharmonia Orchestra, Tullio Serafin) - 2014 (Classical, Opera)


Статистика раздачи [Обновить пиров]
Размер:  471 MB   |    Зарегистрирован:  8 месяцев 15 дней   |    Скачан:  1 раз

Полного источника не было: 3 месяца

 
   
 
 
 

[Цитировать]

Maria Meneghini Callas sings Operatic Arias by Puccini
Maria Callas · Philharmonia Orchestra · Tullio Serafin
- Год издания: 2014
Жанр: Classical, Opera
Издатель (лейбл): Warner Classics
Продолжительность: 00:45:00
Наличие сканов: Covers, Digital Booklet
- -
Giacomo Puccini (1858-1924)
Manon Lescaut
01. Act 2: "In quelle trine morbide" (Manon Lescaut) (2:55)
02. Act 4: "Sola, perduta, abbandonata" (Manon Lescaut) (5:52)
Madama Butterfly
03. Act 2: "Un bel dì vedremo" (Madama Butterfly) (4:34)
04. Act 2: "Con onor muore" (Madama Butterfly) (3:43)
La Bohème
05. Act 1: "Sì. Mi chiamano Mimì" (Mimì) (4:49)
06. Act 3: "Donde lieta uscì" (Mimì) (3:20)
Suor Angelica
07. "Senza mamma" (Sister Angelica) (5:33)
Gianni Schicchi
08. Act 1: "O mio babbino caro" (Lauretta) (2:35)
Turandot
09. Act 1: "Signore, ascolta!" (Turandot) (2:29)
10. Act 2: "In questa reggia" (Turandot) (6:24)
11. Act 3: "Tu, che di gel sei cinta" (Turandot) (2:45)

-
Maria Callas, soprano
Philharmonia Orchestra
Tullio Serafin, conductor
Recorded: 15–18, 20–21.IX.1954, Watford Town Hall

-
Контейнер: FLAC (*.flac)
Тип рипа: tracks
Разрядность: 24bit / 96kHz
Количество каналов: 2.0
-О релизе
Although Maria Callas considered herself a bel canto and Verdi soprano, through recordings and video documents her name is inextricably linked with that of Puccini. This extraordinary album of Puccini arias was aptly named Puccini Heroines, as it is indeed a collection of portraits of many of the composer’s powerful creations for soprano. By September 1954, Callas had reinvented herself as a slim, elegant diva; the weight loss brought a new slenderness to the voice as well, while the instrument retained flexibility and plushness. Listening to this disc 60 years on, one is struck immediately by the sheer beauty in much of the singing. Callas’s bel canto skills, combined with her musical genius, add a host of ravishing touches: perfectly weighted portamentos, exquisite melismas, stunning diminuendos – all essential ingredients for Puccini, often omitted by singers less gifted, all used here for expression.
Callas offers a gallery of characters, each with her own voice – an effect never accomplished in an applied manner, always organic-sounding. One senses Manon’s pampered melancholy in ‘In quelle trine morbide’, and her exhausted desperation in ‘Sola, perduta, abbandonata’. Brilliant storytelling and keen observation of Puccini’s markings make the familiar ‘Un bel dì vedremo’ anything but routine. Going from Butterfly’s death to Mimì’s narrative is akin to a splash of cold water on the listener’s face, so profound is the change. Callas balances perfectly the parlando and legato in both arias from La bohème, while ‘Senza mamma’ is as extraordinary for its sense of loss as ‘O mio babbino caro’ is for its directness. And what other soprano could so fully capture both Liù and Turandot? But then, this is what makes Callas… Callas.
Producer: Walter Legge
Recording engineer: Robert Beckett
Newly remastered from the original tapes at Abbey Road Studios.

ОтчётыДинамический диапазон

foobar2000 1.2.2 / Dynamic Range Meter 1.1.1
log date: 2015-04-03 13:59:29
--------------------------------------------------------------------------------
Analyzed: Maria Callas, Philharmonia Orchestra, Tullio Serafin / Maria Callas sings Operatic Arias by Puccini
--------------------------------------------------------------------------------
DR Peak RMS Duration Track
--------------------------------------------------------------------------------
DR12 -3.05 dB -21.72 dB 2:55 ?-Manon Lescaut: Act 2: "In quelle trine morbide" (Manon Lescaut)
DR11 -1.05 dB -18.04 dB 5:52 ?-Manon Lescaut: Act 4: "Sola, perduta, abbandonata" (Manon Lescaut)
DR10 -2.04 dB -19.27 dB 4:34 ?-Madama Butterfly: Act 2: "Un bel dì vedremo" (Madama Butterfly)
DR11 -0.71 dB -15.55 dB 3:43 ?-Madama Butterfly: Act 2: "Con onor muore" (Madama Butterfly)
DR11 -1.58 dB -20.40 dB 4:49 ?-La Bohème: Act 1: "Sì. Mi chiamano Mimì" (Mimì)
DR12 -2.67 dB -21.58 dB 3:20 ?-La Bohème: Act 3: "Donde lieta uscì" (Mimì)
DR12 -2.79 dB -20.08 dB 5:33 ?-Suor Angelica: "Senza mamma" (Sister Angelica)
DR11 -4.06 dB -20.06 dB 2:35 ?-Gianni Schicchi: Act 1: "O mio babbino caro" (Lauretta)
DR9 -2.50 dB -16.77 dB 2:29 ?-Turandot: Act 1: "Signore, ascolta!" (Turandot)
DR10 -0.17 dB -15.36 dB 6:24 ?-Turandot: Act 2: "In questa reggia" (Turandot)
DR11 -0.83 dB -17.27 dB 2:45 ?-Turandot: Act 3: "Tu, che di gel sei cinta" (Turandot)
--------------------------------------------------------------------------------
Number of tracks: 11
Official DR value: DR11
Samplerate: 96000 Hz
Channels: 2
Bits per sample: 24
Bitrate: 1483 kbps
Codec: FLAC
================================================================================

Скриншот спектра частот

Доп. информация

При скачивании, если необходимо, переименуйте папку, в которой будет находиться альбомБольшая просьба к скачавшим поддерживать раздачу! Помогайте другим, ведь вам тоже может понадобиться помощь!Не забываем говорить "Спасибо"!Комментарии приветствуются!
Maria Callas Hi-Res
[teatrix.ru].t20827.torrent 
Торрент: Зарегистрирован [ 2016-03-20 00:47 ] · 474D9CAC6A49412640C5CD385685A21CC84EA69E

Скачать .torrent

Скачать

20 KB

Статус: проверено
Скачан: 1 раз
Размер: 471 MB
terms.php



Быстрый ответ

Имя:

      
Для отправки сообщений необходимо включить JavaScript
Показать сообщения:    

Текущее время: 04-Дек 04:52

Часовой пояс: UTC + 3


Вы можете начинать темы
Вы можете отвечать на сообщения
Вы не можете редактировать свои сообщения
Вы не можете удалять свои сообщения
Вы не можете голосовать в опросах
Вы не можете прикреплять файлы к сообщениям
Вы можете скачивать файлы