(Classics) Spring Garden Classics: The Ultimate Spring Time Collection - 2003, FLAC (image+.cue) lossless


 

[Цитировать]

Spring Garden Classics:
The Ultimate Spring Time Collection
.
Жанр: Classics
Страна-производитель диска: UK
Год издания диска: 2003
Издатель (лейбл): Sunday Express, Warner Classics
Номер по каталогу: NO
Дата записи: 1968 - 1994
Аудиокодек: FLAC
Тип рипа: image+.cue
Битрейт аудио: lossless
Продолжительность: 00:38:02
Источник: собственный рип
Наличие сканов в содержимом раздачи: да
- .
.
.
Треклист:01.The Nutcracker Suite - Flower Waltz - Пётр Ильич Чайковский 7:05
02. Flight of the Bumblebee - Николай Андреевич Римский-Корсаков 1:03
03. Violin Sonata No.5 - 'Spring' - Ludwig van Beethoven 6:21
04. On wings of song - Felix Mendelssohn 3:23
05. Four Season's 'Spring' - Allegro - Antonio Vivaldi 3:26
06. You are like a flower - Robert Schumann 1:46
07. Memories of the Alhambra - Francisco Tárrega 3:24
08. Coffee Cantata - Johann Sebastian Bach 4:44
09. Four Season's 'Spring' - Allegro, Danza pastorale - Antonio Vivaldi 4:09
10. Water Music: Allegro - Georg Friedrich Händel 2:39
.
Spring Garden Classics - MusicBrainz

Исполнители

01.Alexander Lazarev and The Bolshoi Symphony Orchestra.
02. Sergei Nakariakov, Alexander Markovich.
03. Maxim Vengerov, Itamar Golan.
04. Barbara Bonney, Geoffrey Parsons.
05. Chamber Orchestra of Europe, Marieke Blankenstein.
06. Kiri Te Kanawa, Marek Janowski.
07. Wolfgang Lendle.
08. Nikolaus Harnoncourt, Concentus musicus Wien.
09. Chamber Orchestra Of Europe & Marieke Blankenstijn.
10. Jean-Francois Paillard.

Лог создания рипа

Exact Audio Copy V1.0 beta 3 from 29. August 2011
Отчёт EAC об извлечении, выполненном 3. апреля 2015, 21:26
Various / Spring Garden Classics
Дисковод: TEAC DV-W518GM Adapter: 1 ID: 1
Режим чтения : Достоверность
Использование точного потока : Да
Отключение кэша аудио : Да
Использование указателей C2 : Нет
Коррекция смещения при чтении : 6
Способность читать области Lead-in и Lead-out : Нет
Заполнение пропущенных сэмплов тишиной : Да
Удаление блоков с тишиной в начале и конце : Нет
При вычислениях CRC использовались нулевые сэмплы : Да
Интерфейс : Установленный внешний ASPI-интерфейс
Выходной формат : Пользовательский кодировщик
Выбранный битрейт : 128 kBit/s
Качество : Высокий
Добавление ID3-тега : Нет
Утилита сжатия : C:\Program Files\Exact Audio Copy\Flac\flac.exe
Дополнительные параметры : -V -8 -T "Genre=%genre%" -T "Artist=%artist%" -T "Title=%title%" -T "Album=%albumtitle%" -T "Date=%year%" -T "Tracknumber=%tracknr%" -T "Comment=%comment%" %source%
TOC извлечённого CD
Трек | Старт | Длительность | Начальный сектор | Конечный сектор
---------------------------------------------------------------------
1 | 0:00.00 | 7:05.27 | 0 | 31901
2 | 7:05.27 | 1:02.56 | 31902 | 36607
3 | 8:08.08 | 6:21.15 | 36608 | 65197
4 | 14:29.23 | 3:22.48 | 65198 | 80395
5 | 17:51.71 | 3:25.67 | 80396 | 95837
6 | 21:17.63 | 1:45.70 | 95838 | 103782
7 | 23:03.58 | 3:24.16 | 103783 | 119098
8 | 26:27.74 | 4:44.30 | 119099 | 140428
9 | 31:12.29 | 4:09.26 | 140429 | 159129
10 | 35:21.55 | 2:40.45 | 159130 | 171174
Характеристики диапазона извлечения и сообщения об ошибках
Выбранный диапазон
Имя файла E:\MOI_RAZDACI\Spring_Garden_Classic\VA_Spring.Garden.Classic_The.Ultimate.Spring.Time.Collection.2003\Various - Spring Garden Classics.wav
Пиковый уровень 95.1 %
Скорость извлечения 2.7 X
Качество диапазона 100.0 %
CRC теста BF816417
CRC копии BF816417
Копирование... OK
Ошибок не произошло
AccurateRip: сводка
Трек 1 : извлечено точно (доверие 2) [23233972] (AR v1)
Трек 2 : извлечено точно (доверие 2) [9DE86C6B] (AR v1)
Трек 3 : извлечено точно (доверие 2) [3DC1BE45] (AR v1)
Трек 4 : извлечено точно (доверие 2) [6376E6EE] (AR v1)
Трек 5 : извлечено точно (доверие 2) [37A66E67] (AR v1)
Трек 6 : извлечено точно (доверие 2) [E3E591E0] (AR v1)
Трек 7 : извлечено точно (доверие 2) [B9ADE00F] (AR v1)
Трек 8 : извлечено точно (доверие 2) [23F3F381] (AR v1)
Трек 9 : извлечено точно (доверие 2) [96BBDBD3] (AR v1)
Трек 10 : извлечено точно (доверие 2) [96E713DF] (AR v1)
Все треки извлечены точно
Конец отчёта
==== Контрольная сумма отчёта 88607B5B275D622347CD54560E739A555B71FFB6244CF96F8CE879AD03E8FAD1 ====

Содержание индексной карты (.CUE)

REM GENRE Classical
REM DATE 2003
REM DISCID 8E08EA0A
REM COMMENT "ExactAudioCopy v1.0b3"
PERFORMER "Various"
TITLE "Spring Garden Classics"
FILE "Various - Spring Garden Classics.flac" WAVE
TRACK 01 AUDIO
TITLE "Nutcracker Suite - Tchaikovsky"
PERFORMER "Various"
ISRC 0@4003500000
INDEX 01 00:00:00
TRACK 02 AUDIO
TITLE "Flight of the Bumblebee - Rimsky-Korsakov"
PERFORMER "Various"
ISRC 0@400350?000
INDEX 00 07:03:53
INDEX 01 07:05:27
TRACK 03 AUDIO
TITLE "Violin Sonata #5; Spring - Beethoven"
PERFORMER "Various"
ISRC 0@4003516000
INDEX 00 08:06:60
INDEX 01 08:08:08
TRACK 04 AUDIO
TITLE "On wings of song - Mendelssohn"
PERFORMER "Various"
ISRC 0@4003555000
INDEX 00 14:27:68
INDEX 01 14:29:23
TRACK 05 AUDIO
TITLE "Four Seasons; Spring - Vivaldi"
PERFORMER "Various"
ISRC 0@400350:000
INDEX 00 17:50:38
INDEX 01 17:51:71
TRACK 06 AUDIO
TITLE "You are like a flower - Schumann"
PERFORMER "Various"
ISRC 0@4003504000
INDEX 00 21:16:11
INDEX 01 21:17:63
TRACK 07 AUDIO
TITLE "Memories of the Alhambra - Tarrega"
PERFORMER "Various"
ISRC 0@4003501000
INDEX 00 23:01:36
INDEX 01 23:03:58
TRACK 08 AUDIO
TITLE "Coffee Cantata - Bach"
PERFORMER "Various"
INDEX 00 26:27:01
INDEX 01 26:27:74
TRACK 09 AUDIO
TITLE "Four Seasons; Spring (Danza Pastorale)- Vivaldi"
PERFORMER "Various"
ISRC 20400430:263
INDEX 00 31:10:32
INDEX 01 31:12:29
TRACK 10 AUDIO
TITLE "Water Music - Handel"
PERFORMER "Various"
ISRC 204004300263
INDEX 00 35:20:08
INDEX 01 35:21:55

Лог проверки качества

-----------------------
DON'T MODIFY THIS FILE
-----------------------
PERFORMER: auCDtect Task Manager, ver. 1.5.1RC6 build 1.5.1.7
Copyright (c) 2008-2010 y-soft. All rights reserved
http://y-soft.org
ANALYZER: auCDtect: CD records authenticity detector, version 0.8.2
Copyright (c) 2004 Oleg Berngardt. All rights reserved.
Copyright (c) 2004 Alexander Djourik. All rights reserved.
FILE: Various - Spring Garden Classics.flac
Size: 164690261 Hash: FEE7E062A8F16ED3E23BB8D42C6DF24F Accuracy: -m0
Conclusion: CDDA 100%
Signature: 4052C724F8E24C4640673DF0A1855CE7331EF71C

МОИ РАЗДАЧИ - МУЗЫКА: / MY DISTRIBUTION - MUSIC:

Rock music:

Прямые кликабельные ссылки на раздачи.
Direct clickable links to hand.






















Pop music:

Прямые кликабельные ссылки на раздачи.
Direct clickable links to hand.




























Other music including Electronic and Soundtracks:

Прямые кликабельные ссылки на раздачи.
Direct clickable links to hand.



























Показать сообщения:    

Текущее время: 10-Дек 00:18

Часовой пояс: UTC + 3


Вы не можете начинать темы
Вы не можете отвечать на сообщения
Вы не можете редактировать свои сообщения
Вы не можете удалять свои сообщения
Вы не можете голосовать в опросах
Вы не можете прикреплять файлы к сообщениям
Вы не можете скачивать файлы