Жан-Поль Бельмондо о фильме Дезире / Jean-Paul Belmondo Interview: Desire (Брюно Мазюр / Bruno Masure) [07.04.1996, документальный, кинематограф, IPTVRip-AVC] Original (Fre) + Sub (Rus)


Статистика раздачи [Обновить пиров]
Размер:  68 MB   |    Зарегистрирован:  10 месяцев   |    Скачан:  0 раз

Полного источника не было: Никогда

 
   
 
 
 

[Цитировать]

Жан-Поль Бельмондо о фильме "Дезире"
Jean-Paul Belmondo Interview: Désiré- Дата/Год выпуска: 07.04.1996
Страна: Франция
Жанр: документальный, кинематограф
Продолжительность: 00:05:37
Перевод: Субтитры
Русские субтитры: естьФормат субтитров: softsub (SRT)
Доп. информация о субтитрах: перевод Алексей Королёв, инициатор Алексей Проскуряков aka Aleks Punk
Оригинальная аудиодорожка: французский
Режиссер: Брюно Мазюр / Bruno Masure
Телеканал: ina
Описание: В интервью каналу France 2, которое представляет обладатель 7 Золотых наград лучшему ведущему теленовостей журналист Брюно Мазюр / Bruno Masure, Жан-Поль Бельмондо подвергает резкой критике систему кинопроката во Франции. Его последний фильм "Дезире" по пьесе Саша Гитри идет всего в 20 кинотеатрах, из которых 6 в Париже. Из-за этого, уверяет актер, фильм не пользуется успехом у зрителя.
Доп. информация: За предоставленный материал благодарность Aleks Punk

качество: IPTVRip-AVC
формат: MKV
Видео: AVC (H.264), 640x480 (4:3), 25 fps, ~1500 kbps avg, 0.195 bit/pixel
Аудио: AC3, 2 ch, 48 kHz, ~192.00 kbps avg

Пример субтитров

1
00:00:00,380 --> 00:00:05,980
Еще одно направление удара Жана-Поля
Бельмондо - политика кинопроката
во Франции.
2
00:00:06,100 --> 00:00:09,500
Борец нападает на засилье американского кино
во Франции
3
00:00:09,900 --> 00:00:14,300
в то время, как его новый фильм "Дезире",
снятый по пьесе Саша Гитри,
4
00:00:14,460 --> 00:00:19,380
будет показан, начиная с ближайшей среды,
всего навсего в 20-ти залах, из которых
только 6 в Париже.
5
00:00:19,500 --> 00:00:21,860
Справедлив ли гнев Бельмондо?
6
00:00:21,980 --> 00:00:25,860
На этот вопрос попробуют найти ответ
Шанталь Кимерна и Жак Капри-Элан (?).
7
00:00:27,140 --> 00:00:31,500
- Попросите программу показов на среду,
10 апреля: "Дракула: Мертвый и довольный", американский фильм,
8
00:00:31,740 --> 00:00:34,260
заполучил 263 зала.
9
00:00:34,340 --> 00:00:38,620
"Кушетка в Нью-Йорке",- совместное производство
Франции, Бельгии и Германии - 106 залов.
10
00:00:38,740 --> 00:00:43,340
"Уоллес и Громит", английский мультфильм,
170 залов сходу.
11
00:00:43,460 --> 00:00:49,740
И за последние 2 недели диснеевский мультик
"История игрушек"был показан в пятистах залах.
12
00:00:50,020 --> 00:00:55,700
А "Дезире" предполагается показать
только в 20-ти залах, из которых только 6
в Париже.
13
00:00:55,820 --> 00:00:58,540
- Это удивительно.
- Да, это странно.
14
00:00:58,660 --> 00:01:00,820
- Это странно, некрасиво, ненормально.
15
00:01:00,980 --> 00:01:03,660
- Это какая-то загадка.
16
00:01:03,820 --> 00:01:05,540
Бельмондо все обожают, и вот...
17
00:01:05,900 --> 00:01:10,620
"Дезире", столь любимый этими дамами,
видимо, не является любимцем
кинопрокатчиков.
18
00:01:10,740 --> 00:01:16,180
Почему реклама фильма ограничивается
только плакатами на некоторых автобусных
остановках и на стенах в метро?
19
00:01:16,300 --> 00:01:21,660
Почему нет ни одной афиши
на фасадах кинотеатров, где сегодня
анонсируется столько фильмов?
20
00:01:21,780 --> 00:01:24,500
Стефан Салерно, дирекция кинематографа
Не могу сказать, что это правильно,

MediaInfo

Общее
Уникальный идентификатор : 239255138076538220765418866377300905115 (0xB3FEDD0CD45219DB815F964C7CB40C9B)
Полное имя : E:\My Torrents 2\[apreder]Jean-Paul_Belmondo_Interview_Desire(07.04.1996)IPTVRip.mkv
Формат : Matroska
Версия формата : Version 2
Размер файла : 68,2 Мбайт
Продолжительность : 5 м. 37 с.
Общий поток : 1693 Кбит/сек
Дата кодирования : UTC 2015-04-04 07:32:03
Программа кодирования : mkvmerge v7.8.0 ('River Man') 64bit built on Mar 27 2015 16:31:37
Библиотека кодирования : libebml v1.3.1 + libmatroska v1.4.2
Видео
Идентификатор : 1
Формат : AVC
Формат/Информация : Advanced Video Codec
Профиль формата : High@L4.1
Параметр CABAC формата : Да
Параметр ReFrames формата : 16 кадров
Идентификатор кодека : V_MPEG4/ISO/AVC
Продолжительность : 5 м. 37 с.
Битрейт : 1500 Кбит/сек
Ширина : 640 пикселей
Высота : 480 пикселей
Соотношение сторон : 4:3
Режим частоты кадров : Постоянный
Частота кадров : 25,000 кадров/сек
Цветовое пространство : YUV
Субдискретизация насыщенности : 4:2:0
Битовая глубина : 8 бит
Тип развёртки : Прогрессивная
Бит/(Пиксели*Кадры) : 0.195
Размер потока : 59,1 Мбайт (87%)
Библиотека кодирования : x264 core 146 r2538 121396c
Настройки программы : cabac=1 / ref=16 / deblock=1:-1:-1 / analyse=0x3:0x133 / me=umh / subme=10 / psy=1 / psy_rd=1.00:0.15 / mixed_ref=1 / me_range=24 / chroma_me=1 / trellis=2 / 8x8dct=1 / cqm=0 / deadzone=21,11 / fast_pskip=1 / chroma_qp_offset=-3 / threads=6 / lookahead_threads=1 / sliced_threads=0 / nr=0 / decimate=1 / interlaced=0 / bluray_compat=0 / constrained_intra=0 / bframes=8 / b_pyramid=2 / b_adapt=2 / b_bias=0 / direct=3 / weightb=1 / open_gop=0 / weightp=2 / keyint=250 / keyint_min=25 / scenecut=40 / intra_refresh=0 / rc_lookahead=60 / rc=2pass / mbtree=1 / bitrate=1500 / ratetol=1.0 / qcomp=0.60 / qpmin=0 / qpmax=69 / qpstep=4 / cplxblur=20.0 / qblur=0.5 / vbv_maxrate=62500 / vbv_bufsize=78125 / nal_hrd=none / filler=0 / ip_ratio=1.40 / aq=1:1.00
Default : Да
Forced : Нет
Аудио
Идентификатор : 2
Формат : AC-3
Формат/Информация : Audio Coding 3
Расширение режима : CM (complete main)
Параметр Endianness формата : Big
Идентификатор кодека : A_AC3
Продолжительность : 5 м. 37 с.
Вид битрейта : Постоянный
Битрейт : 192 Кбит/сек
Каналы : 2 канала
Расположение каналов : Front: L R
Частота : 48,0 КГц
Битовая глубина : 16 бит
Метод сжатия : С потерями
Размер потока : 7,73 Мбайт (11%)
Язык : French
Default : Да
Forced : Нет
Текст
Идентификатор : 3
Формат : UTF-8
Идентификатор кодека : S_TEXT/UTF8
Идентификатор кодека/Информация : UTF-8 Plain Text
Язык : Russian
Default : Да
Forced : Нет

Скриншоты

Резервные скриншоты

-[2'194]
[teatrix.ru].t20834.torrent 
Торрент: Зарегистрирован [ 2016-03-20 00:47 ] · FE8476E3982326F829B1C7E5DADA86BD53AA8EC4

Скачать .torrent

Скачать

11 KB

Статус: проверено
Скачан: 0 раз
Размер: 68 MB
terms.php



Показать сообщения:    

Текущее время: 20-Янв 14:56

Часовой пояс: UTC + 3


Вы не можете начинать темы
Вы не можете отвечать на сообщения
Вы не можете редактировать свои сообщения
Вы не можете удалять свои сообщения
Вы не можете голосовать в опросах
Вы не можете прикреплять файлы к сообщениям
Вы можете скачивать файлы