Жан-Поль Бельмондо о роли боксера в фильме Старший Фершо / Un jeune homme honorable: Jean-Paul Belmondo dans le role d'un boxeur (Франсуа Жанен / François Janin) [31.08.1962, документальный, кинематограф, IPTVRip-AVC] Original (Fre) + Sub (Rus)


Статистика раздачи [Обновить пиров]
Размер:  43 MB   |    Зарегистрирован:  8 месяцев 17 дней   |    Скачан:  0 раз

Полного источника не было: Никогда

 
   
 
 
 

[Цитировать]

Жан-Поль Бельмондо о роли боксера в фильме "Старший Фершо"
Un jeune homme honorable: Jean-Paul Belmondo dans le rôle d'un boxeur- Дата/Год выпуска: 31.08.1962
Страна: Франция
Жанр: документальный, кинематограф
Продолжительность: 00:03:31
Перевод: Субтитры
Русские субтитры: естьФормат субтитров: softsub (SRT)
Доп. информация о субтитрах: перевод Алексей Королёв, инициатор Алексей Проскуряков aka Aleks Punk
Оригинальная аудиодорожка: французский
Режиссер: Франсуа Жанен / François Janin
Телеканал: ina
Описание: Интервью для канала RTF о съемках фильма по роману Жоржа Сименона "Дело Фершо / L'Aîné des Ferchaux / Un jeune homme honorable" реж. Жана-Пьера Мельвиля у актера Жана-Поля Бельмондо, только что сразившегося на ринге с Морисом Озелем / Maurice Auzel, берет журналист Франсуа Жанен / François Janin.
Доп. информация: За предоставленный материал благодарность Aleks Punk

качество: IPTVRip-AVC
формат: MKV
Видео: AVC (H.264), 640x480 (4:3), 25 fps, ~1500 kbps avg, 0.195 bit/pixel
Аудио: AC3, 2 ch, 48 kHz, ~192.00 kbps avg

Пример субтитров

1
00:00:01,180 --> 00:00:02,780
В студии "Де Пине"(?) проходят
съемки.
2
00:00:02,900 --> 00:00:08,380
Телевидение засняло работу кинокамер
в действии и засняло на своих рабочих местах
тех, кто обычно появляется только в титрах.
3
00:00:08,580 --> 00:00:13,220
Режиссер Жан-Пьер Мельвиль воссоздал
на этой площадке точные условия
боксерского поединка
4
00:00:13,420 --> 00:00:15,620
для своего фильма "Приличный молодой человек"
5
00:00:15,740 --> 00:00:18,740
по роману Жоржа Сименона
"Дело Фершо".
6
00:00:18,820 --> 00:00:21,820
Ринг обустроен как надо, ритуалы
соблюдены, зрители на своих местах.
7
00:00:21,980 --> 00:00:26,300
Здесь чувствуются щедро рассеянные
частицы пыли и дыма.
8
00:00:26,420 --> 00:00:31,180
Это история о молодом боксере, который
не смог обрести славу и состояние на ринге
и смирился с этим.
9
00:00:31,300 --> 00:00:36,580
Исполнитель главной роли был
тщательно отобран
Жаном-Пьером Мельвилем.
10
00:00:36,700 --> 00:00:41,940
Вы наверно уже узнали его, он уже
стал довольно известен, этот "приличный
молодой человек"
-
11
00:00:42,060 --> 00:00:43,540
Жан-Поль Бельмондо.
12
00:00:50,020 --> 00:00:54,020
- Жан-Поль Бельмондо, на ринге вы
снова попали в уже привычную для вас
атмосферу...
13
00:00:54,100 --> 00:00:57,420
Какая дистанция отделяет Бельмондо-актера
от Бельмондо-боксера?
14
00:00:57,540 --> 00:00:59,820
- Дистанция... Когда я занимался боксом,
15
00:01:00,060 --> 00:01:03,460
я решил все же стать актером,
16
00:01:04,020 --> 00:01:08,460
потому что, когда я остановился,
я сразу же стал ???
17
00:01:08,580 --> 00:01:14,260
и преодоленная дистанция - это главным
образом этапы, когда я был актером
театра, играл незначительные роли...
18
00:01:14,460 --> 00:01:18,220
Чтобы сейчас стать опять актером,
как раньше.
19
00:01:18,340 --> 00:01:22,340
А что думает Бельмондо-актер
о Бельмондо-боксере, когда он им был?
20
00:01:22,740 --> 00:01:26,940
- Для меня нет разницы,
я всегда тот же самый.

MediaInfo

Общее
Уникальный идентификатор : 207495603941732390148710272361486364055 (0x9C1A331F47169F49A32E24A4E9BC2D97)
Полное имя : E:\My Torrents 2\[apreder]Jean-Paul_Belmondo_dans_le_role_d'un_boxeur(31.08.1962)IPTVRip.mkv
Формат : Matroska
Версия формата : Version 2
Размер файла : 42,8 Мбайт
Продолжительность : 3 м. 31 с.
Общий поток : 1695 Кбит/сек
Дата кодирования : UTC 2015-04-04 08:11:19
Программа кодирования : mkvmerge v7.8.0 ('River Man') 64bit built on Mar 27 2015 16:31:37
Библиотека кодирования : libebml v1.3.1 + libmatroska v1.4.2
Видео
Идентификатор : 1
Формат : AVC
Формат/Информация : Advanced Video Codec
Профиль формата : High@L4.1
Параметр CABAC формата : Да
Параметр ReFrames формата : 16 кадров
Идентификатор кодека : V_MPEG4/ISO/AVC
Продолжительность : 3 м. 31 с.
Битрейт : 1500 Кбит/сек
Ширина : 640 пикселей
Высота : 480 пикселей
Соотношение сторон : 4:3
Режим частоты кадров : Постоянный
Частота кадров : 25,000 кадров/сек
Цветовое пространство : YUV
Субдискретизация насыщенности : 4:2:0
Битовая глубина : 8 бит
Тип развёртки : Прогрессивная
Бит/(Пиксели*Кадры) : 0.195
Размер потока : 37,1 Мбайт (87%)
Библиотека кодирования : x264 core 146 r2538 121396c
Настройки программы : cabac=1 / ref=16 / deblock=1:-1:-1 / analyse=0x3:0x133 / me=umh / subme=10 / psy=1 / psy_rd=1.00:0.15 / mixed_ref=1 / me_range=24 / chroma_me=1 / trellis=2 / 8x8dct=1 / cqm=0 / deadzone=21,11 / fast_pskip=1 / chroma_qp_offset=-3 / threads=6 / lookahead_threads=1 / sliced_threads=0 / nr=0 / decimate=1 / interlaced=0 / bluray_compat=0 / constrained_intra=0 / bframes=8 / b_pyramid=2 / b_adapt=2 / b_bias=0 / direct=3 / weightb=1 / open_gop=0 / weightp=2 / keyint=250 / keyint_min=25 / scenecut=40 / intra_refresh=0 / rc_lookahead=60 / rc=2pass / mbtree=1 / bitrate=1500 / ratetol=1.0 / qcomp=0.60 / qpmin=0 / qpmax=69 / qpstep=4 / cplxblur=20.0 / qblur=0.5 / vbv_maxrate=62500 / vbv_bufsize=78125 / nal_hrd=none / filler=0 / ip_ratio=1.40 / aq=1:1.00
Default : Да
Forced : Нет
Аудио
Идентификатор : 2
Формат : AC-3
Формат/Информация : Audio Coding 3
Расширение режима : CM (complete main)
Параметр Endianness формата : Big
Идентификатор кодека : A_AC3
Продолжительность : 3 м. 31 с.
Вид битрейта : Постоянный
Битрейт : 192 Кбит/сек
Каналы : 2 канала
Расположение каналов : Front: L R
Частота : 48,0 КГц
Битовая глубина : 16 бит
Метод сжатия : С потерями
Размер потока : 4,84 Мбайт (11%)
Язык : French
Default : Да
Forced : Нет
Текст
Идентификатор : 3
Формат : UTF-8
Идентификатор кодека : S_TEXT/UTF8
Идентификатор кодека/Информация : UTF-8 Plain Text
Язык : Russian
Default : Да
Forced : Нет

Скриншоты

Резервные скриншоты

-[2'195]
[teatrix.ru].t20835.torrent 
Торрент: Зарегистрирован [ 2016-03-20 00:47 ] · 3DAEB54130C976C1C66D12A485AC64B0581860BA

Скачать .torrent

Скачать

14 KB

Статус: проверено
Скачан: 0 раз
Размер: 43 MB
terms.php



Показать сообщения:    

Текущее время: 06-Дек 19:03

Часовой пояс: UTC + 3


Вы не можете начинать темы
Вы не можете отвечать на сообщения
Вы не можете редактировать свои сообщения
Вы не можете удалять свои сообщения
Вы не можете голосовать в опросах
Вы не можете прикреплять файлы к сообщениям
Вы можете скачивать файлы