(Opera) Wagner - Der Ring des Nibelungen (Tomlinson, Kannen, Jerusalem, Meier, Svenden, Evans, Kang, Kannen, Clark, Johansson, Finnie, Brinkmann, Bayreuth Festival Orchestra and Choir, Daniel Barenboim) - 2011, FLAC (image+.cue), lossless


 

[Цитировать]

Wagner - Der Ring des Nibelungen - Barenboim
Жанр: Opera
Страна-производитель диска: EU
Год издания диска: 2011
Издатель (лейбл): Warner Classics & Jazz
Номер по каталогу: 2564 67714-0
Дата записи: 06-07/1991 & 1992
Аудиокодек: FLAC
Тип рипа: image+.cue
Битрейт аудио: lossless
Продолжительность: 889 min.
Источник: собственный рип
Наличие сканов в содержимом раздачи: да

Das Rheingold:CD1:Треклист:

Scene 1
01. Vorspiel
02. Weia! Waga! Woge du Welle!
03. He he! Ihr Nicker!
04. Garstig glatter glitschriger Glimmer!
05. Wie in den Gliedern
06. Lugt Schwestern!
07. Was ist's ihr Glatten
08. Der Welt Erbe gewann' ich zu eigen
Scene 2
09. Wotan, Gemahl! erwache!
10. Um des Gatten Treue besorgt
11. Sanft schloss Schlaf dein Aug'
12. Endlich Loge!
13. Immer ist Undank Loges Lohn!
14. Dir's zu melden
15. Hor, Wotan, der Harrenden Wort!
16. Uber Stock und Stein
17. Was sinnt nun Wotan so wild
18. Auf, Loge
Scene 3
19. Hehe! hehe! hieher!
20. Nibelheim hier
Total 74.51

Лог создания рипа:

Exact Audio Copy V1.0 beta 3 from 29. August 2011
Отчёт EAC об извлечении, выполненном 27. марта 2015, 8:56
Richard Wagner / Das Rheingold - CD1
Дисковод: Optiarc DVD RW AD-7260S Adapter: 0 ID: 1
Режим чтения : Достоверность
Использование точного потока : Да
Отключение кэша аудио : Да
Использование указателей C2 : Нет
Коррекция смещения при чтении : 48
Способность читать области Lead-in и Lead-out : Нет
Заполнение пропущенных сэмплов тишиной : Да
Удаление блоков с тишиной в начале и конце : Нет
При вычислениях CRC использовались нулевые сэмплы : Да
Интерфейс : Встроенный Win32-интерфейс для Win NT/2000
Выходной формат : Пользовательский кодировщик
Выбранный битрейт : 896 kBit/s
Качество : Высокий
Добавление ID3-тега : Нет
Утилита сжатия : C:\Program Files\FLAC Frontend\tools\flac.exe
Дополнительные параметры : -V -8 -T "Date=%year%" -T "Genre=%genre%" %source%
TOC извлечённого CD
Трек | Старт | Длительность | Начальный сектор | Конечный сектор
---------------------------------------------------------------------
1 | 0:00.00 | 4:11.05 | 0 | 18829
2 | 4:11.05 | 1:11.07 | 18830 | 24161
3 | 5:22.12 | 1:04.55 | 24162 | 29016
4 | 6:26.67 | 5:23.68 | 29017 | 53309
5 | 11:50.60 | 1:41.45 | 53310 | 60929
6 | 13:32.30 | 2:18.65 | 60930 | 71344
7 | 15:51.20 | 3:46.52 | 71345 | 88346
8 | 19:37.72 | 4:58.13 | 88347 | 110709
9 | 24:36.10 | 5:36.72 | 110710 | 135981
10 | 30:13.07 | 4:27.55 | 135982 | 156061
11 | 34:40.62 | 8:56.50 | 156062 | 196311
12 | 43:37.37 | 3:48.43 | 196312 | 213454
13 | 47:26.05 | 4:19.35 | 213455 | 232914
14 | 51:45.40 | 6:22.32 | 232915 | 261596
15 | 58:07.72 | 2:09.38 | 261597 | 271309
16 | 60:17.35 | 0:38.20 | 271310 | 274179
17 | 60:55.55 | 5:31.30 | 274180 | 299034
18 | 66:27.10 | 4:11.47 | 299035 | 317906
19 | 70:38.57 | 3:27.55 | 317907 | 333486
20 | 74:06.37 | 0:44.38 | 333487 | 336824
Характеристики диапазона извлечения и сообщения об ошибках
Выбранный диапазон
Имя файла N:\Wagner - Der Ring des Nibelungen - Barenboim\I. Das Rheingolg\CD1\Richard Wagner - Das Rheingold - CD1.wav
Пиковый уровень 100.0 %
Скорость извлечения 4.5 X
Качество диапазона 100.0 %
CRC теста 5C3A5EBF
CRC копии 5C3A5EBF
Копирование... OK
Ошибок не произошло
AccurateRip: сводка
Трек 1 : извлечено точно (доверие 11) [8A09F1D4] (AR v2)
Трек 2 : извлечено точно (доверие 11) [858EEEEA] (AR v2)
Трек 3 : извлечено точно (доверие 11) [415DB203] (AR v2)
Трек 4 : извлечено точно (доверие 11) [C3560C1D] (AR v2)
Трек 5 : извлечено точно (доверие 11) [BC1B3102] (AR v2)
Трек 6 : извлечено точно (доверие 11) [BD124F3F] (AR v2)
Трек 7 : извлечено точно (доверие 11) [52949126] (AR v2)
Трек 8 : извлечено точно (доверие 11) [EF4483D3] (AR v2)
Трек 9 : извлечено точно (доверие 11) [F4725BD3] (AR v2)
Трек 10 : извлечено точно (доверие 11) [5F5A6FFE] (AR v2)
Трек 11 : извлечено точно (доверие 11) [2FDF4457] (AR v2)
Трек 12 : извлечено точно (доверие 11) [F22644A5] (AR v2)
Трек 13 : извлечено точно (доверие 11) [99C2B562] (AR v2)
Трек 14 : извлечено точно (доверие 11) [7E1287AA] (AR v2)
Трек 15 : извлечено точно (доверие 11) [3FD61EA6] (AR v2)
Трек 16 : извлечено точно (доверие 11) [B3D52DC6] (AR v2)
Трек 17 : извлечено точно (доверие 11) [B7CAB18E] (AR v2)
Трек 18 : извлечено точно (доверие 11) [9F1F2788] (AR v2)
Трек 19 : извлечено точно (доверие 11) [524700E7] (AR v2)
Трек 20 : извлечено точно (доверие 11) [AC11DDEB] (AR v2)
Все треки извлечены точно
Конец отчёта
==== Контрольная сумма отчёта A27F4B15B39C7102B7041CAF575CD1446A2817B2D7593949CA2A3FAD05BC7696 ====

CD2:Треклист:

Scene 3
01. Wer halfe mir
02. Nehmt euch in ach!
03. Zittre und zage
04. Was wollt ihr hier
05. Die in linder Lufte Wehn
06. Wen doch fasste nicht Wunder
07. Riesen-Wurm winde sich
08. Krumm und grau
Scene 4
09. Da, Vetter sitze du fest!
10. Gezahlt hab' ich
11. Ein goldner Ring
12. Ist er gelost?
13. Lauschtest du seinem Liebesgruss
14. Lauschtest Schwester
15. So sind wir denn fertig
16. Weiche, Wotan, weiche!
17. Hort, ihr Riesen!
18. Halt, du Gieriger!
19. Was gleicht, Wotan
20. Schwules Gedunst
21. Abendlich strahlt der Sonne Auge
22. Ihrem Ende eilen sie zu
23. Rheingold, Rheingold!
Total 74.18

Лог создания рипа:

Exact Audio Copy V1.0 beta 3 from 29. August 2011
Отчёт EAC об извлечении, выполненном 27. марта 2015, 9:38
Richard Wagner / Das Rheingold - CD2
Дисковод: Optiarc DVD RW AD-7260S Adapter: 0 ID: 1
Режим чтения : Достоверность
Использование точного потока : Да
Отключение кэша аудио : Да
Использование указателей C2 : Нет
Коррекция смещения при чтении : 48
Способность читать области Lead-in и Lead-out : Нет
Заполнение пропущенных сэмплов тишиной : Да
Удаление блоков с тишиной в начале и конце : Нет
При вычислениях CRC использовались нулевые сэмплы : Да
Интерфейс : Встроенный Win32-интерфейс для Win NT/2000
Выходной формат : Пользовательский кодировщик
Выбранный битрейт : 896 kBit/s
Качество : Высокий
Добавление ID3-тега : Нет
Утилита сжатия : C:\Program Files\FLAC Frontend\tools\flac.exe
Дополнительные параметры : -V -8 -T "Date=%year%" -T "Genre=%genre%" %source%
TOC извлечённого CD
Трек | Старт | Длительность | Начальный сектор | Конечный сектор
---------------------------------------------------------------------
1 | 0:00.00 | 4:07.50 | 0 | 18574
2 | 4:07.50 | 1:28.12 | 18575 | 25186
3 | 5:35.62 | 0:54.25 | 25187 | 29261
4 | 6:30.12 | 2:58.03 | 29262 | 42614
5 | 9:28.15 | 2:36.32 | 42615 | 54346
6 | 12:04.47 | 3:52.48 | 54347 | 71794
7 | 15:57.20 | 2:51.65 | 71795 | 84684
8 | 18:49.10 | 4:38.12 | 84685 | 105546
9 | 23:27.22 | 5:04.18 | 105547 | 128364
10 | 28:31.40 | 1:00.42 | 128365 | 132906
11 | 29:32.07 | 4:07.43 | 132907 | 151474
12 | 33:39.50 | 4:02.27 | 151475 | 169651
13 | 37:42.02 | 3:17.33 | 169652 | 184459
14 | 40:59.35 | 6:15.35 | 184460 | 212619
15 | 47:14.70 | 2:43.07 | 212620 | 224851
16 | 49:58.02 | 6:13.00 | 224852 | 252826
17 | 56:11.02 | 1:50.35 | 252827 | 261111
18 | 58:01.37 | 2:14.40 | 261112 | 271201
19 | 60:16.02 | 2:06.68 | 271202 | 280719
20 | 62:22.70 | 4:04.22 | 280720 | 299041
21 | 66:27.17 | 3:35.68 | 299042 | 315234
22 | 70:03.10 | 0:46.12 | 315235 | 318696
23 | 70:49.22 | 3:28.53 | 318697 | 334349
Характеристики диапазона извлечения и сообщения об ошибках
Выбранный диапазон
Имя файла N:\Wagner - Der Ring des Nibelungen - Barenboim\I. Das Rheingolg\CD2\Richard Wagner - Das Rheingold - CD2.wav
Пиковый уровень 97.7 %
Скорость извлечения 4.5 X
Качество диапазона 100.0 %
CRC теста D11F97ED
CRC копии D11F97ED
Копирование... OK
Ошибок не произошло
AccurateRip: сводка
Трек 1 : извлечено точно (доверие 10) [D7108AC1] (AR v2)
Трек 2 : извлечено точно (доверие 10) [CA352672] (AR v2)
Трек 3 : извлечено точно (доверие 10) [AD17ECA4] (AR v2)
Трек 4 : извлечено точно (доверие 10) [F43CB19D] (AR v2)
Трек 5 : извлечено точно (доверие 10) [60879F3A] (AR v2)
Трек 6 : извлечено точно (доверие 10) [FFD10A62] (AR v2)
Трек 7 : извлечено точно (доверие 10) [0ED6F7B4] (AR v2)
Трек 8 : извлечено точно (доверие 10) [627FA228] (AR v2)
Трек 9 : извлечено точно (доверие 10) [375B1F64] (AR v2)
Трек 10 : извлечено точно (доверие 10) [54170561] (AR v2)
Трек 11 : извлечено точно (доверие 10) [53861FCF] (AR v2)
Трек 12 : извлечено точно (доверие 10) [2E8DE33F] (AR v2)
Трек 13 : извлечено точно (доверие 11) [6D06C6DE] (AR v2)
Трек 14 : извлечено точно (доверие 11) [A0713C09] (AR v2)
Трек 15 : извлечено точно (доверие 11) [1FC589E2] (AR v2)
Трек 16 : извлечено точно (доверие 11) [B9ADEA7C] (AR v2)
Трек 17 : извлечено точно (доверие 11) [E65F371E] (AR v2)
Трек 18 : извлечено точно (доверие 11) [1780BB55] (AR v2)
Трек 19 : извлечено точно (доверие 11) [D5A7B594] (AR v2)
Трек 20 : извлечено точно (доверие 11) [E21932C9] (AR v2)
Трек 21 : извлечено точно (доверие 11) [0C72CC69] (AR v2)
Трек 22 : извлечено точно (доверие 11) [6FB37607] (AR v2)
Трек 23 : извлечено точно (доверие 11) [41576A9D] (AR v2)
Все треки извлечены точно
Конец отчёта
==== Контрольная сумма отчёта D7FE1B58656EDE4F14FA32C09BC06333EEA86E4B5BB011DDC709F29FEC3235AE ====

Исполнители:

John Tomlinson (Wotan)
Günter von Kannen (Alberich)
Bodo Brinkmann (Donner)
Helmut Pampuch (Mime)
Kurt Schreibmayer (Froh)
Matthias Hölle (Fasolt)
Graham Clark (Loge)
Philip Kang (Fafner)
Linda Finnie (Fricka)
Hilde Leidland (Woglinde)
Eva Johansson (Freia)
Annette Küttenbaum (Wellgunde)
Birgitta Svendén (Erda)
Jane Turner (Flosshilde)
Bayreuth Festival Orchestra and Choir
Daniel Barenboim

Die Walküre:CD1:Треклист:

Act 1
01. Vorspiel
02. Wes Herd dies auch sei
03. Kuhlende Labung gab mir der Quell
04. Einen Unseligen labtest du
05. Mud am Herd fand ich den Mann
06. Friedmund darf ich nicht heissen
07. Aus dem Wald trieb es mich fort
08. Die so leidig Los dir beschied
09. Ich weiss ein wildes Geschlecht
10. Ein Schwert verhiess mir der Vater
11. Schlafst du, Gast
12. Der Manner Sippe
13. Wintersturme wichen dem Wonnemond
14. Du bist der Lenz
15. O susseste Wonne!
16. War Walse dein Vater
17. Siegmund heiss' ich
Total 65.54

Лог создания рипа:

Exact Audio Copy V1.0 beta 3 from 29. August 2011
Отчёт EAC об извлечении, выполненном 27. марта 2015, 10:52
Richard Wagner / Die Walkure - CD1
Дисковод: Optiarc DVD RW AD-7260S Adapter: 0 ID: 1
Режим чтения : Достоверность
Использование точного потока : Да
Отключение кэша аудио : Да
Использование указателей C2 : Нет
Коррекция смещения при чтении : 48
Способность читать области Lead-in и Lead-out : Нет
Заполнение пропущенных сэмплов тишиной : Да
Удаление блоков с тишиной в начале и конце : Нет
При вычислениях CRC использовались нулевые сэмплы : Да
Интерфейс : Встроенный Win32-интерфейс для Win NT/2000
Выходной формат : Пользовательский кодировщик
Выбранный битрейт : 896 kBit/s
Качество : Высокий
Добавление ID3-тега : Нет
Утилита сжатия : C:\Program Files\FLAC Frontend\tools\flac.exe
Дополнительные параметры : -V -8 -T "Date=%year%" -T "Genre=%genre%" %source%
TOC извлечённого CD
Трек | Старт | Длительность | Начальный сектор | Конечный сектор
---------------------------------------------------------------------
1 | 0:00.00 | 4:20.40 | 0 | 19539
2 | 4:20.40 | 4:04.22 | 19540 | 37861
3 | 8:24.62 | 4:30.15 | 37862 | 58126
4 | 12:55.02 | 3:20.28 | 58127 | 73154
5 | 16:15.30 | 5:03.55 | 73155 | 95934
6 | 21:19.10 | 4:20.05 | 95935 | 115439
7 | 25:39.15 | 1:31.15 | 115440 | 122279
8 | 27:10.30 | 4:18.12 | 122280 | 141641
9 | 31:28.42 | 5:58.43 | 141642 | 168534
10 | 37:27.10 | 6:00.17 | 168535 | 195551
11 | 43:27.27 | 1:01.45 | 195552 | 200171
12 | 44:28.72 | 5:56.48 | 200172 | 226919
13 | 50:25.45 | 2:57.22 | 226920 | 240216
14 | 53:22.67 | 2:05.50 | 240217 | 249641
15 | 55:28.42 | 6:30.53 | 249642 | 278944
16 | 61:59.20 | 0:20.10 | 278945 | 280454
17 | 62:19.30 | 3:34.45 | 280455 | 296549
Характеристики диапазона извлечения и сообщения об ошибках
Выбранный диапазон
Имя файла N:\Wagner - Der Ring des Nibelungen - Barenboim\II. Die Walkure\CD1\Richard Wagner - Die Walkure - CD1.wav
Пиковый уровень 99.2 %
Скорость извлечения 4.4 X
Качество диапазона 100.0 %
CRC теста 4CCA1396
CRC копии 4CCA1396
Копирование... OK
Ошибок не произошло
AccurateRip: сводка
Трек 1 : извлечено точно (доверие 10) [77879614] (AR v2)
Трек 2 : извлечено точно (доверие 10) [FC2ABF1F] (AR v2)
Трек 3 : извлечено точно (доверие 10) [70F7DBEA] (AR v2)
Трек 4 : извлечено точно (доверие 10) [199ACF70] (AR v2)
Трек 5 : извлечено точно (доверие 10) [D0589B5F] (AR v2)
Трек 6 : извлечено точно (доверие 10) [5831F9EE] (AR v2)
Трек 7 : извлечено точно (доверие 10) [D254EC6F] (AR v2)
Трек 8 : извлечено точно (доверие 10) [7BA75E49] (AR v2)
Трек 9 : извлечено точно (доверие 10) [81FC31FA] (AR v2)
Трек 10 : извлечено точно (доверие 10) [DBEAF074] (AR v2)
Трек 11 : извлечено точно (доверие 10) [D51C550E] (AR v2)
Трек 12 : извлечено точно (доверие 10) [CEA46570] (AR v2)
Трек 13 : извлечено точно (доверие 10) [5E2B0A24] (AR v2)
Трек 14 : извлечено точно (доверие 10) [4D5B1EDE] (AR v2)
Трек 15 : извлечено точно (доверие 10) [2930AA21] (AR v2)
Трек 16 : извлечено точно (доверие 10) [4703ABC7] (AR v2)
Трек 17 : извлечено точно (доверие 10) [50F76348] (AR v2)
Все треки извлечены точно
Конец отчёта
==== Контрольная сумма отчёта CD0F94BD90243AED3403B1AB1BAA5C267321309AAC0B58FF2ADCE156175C3160 ====

CD2:Треклист:

Act 2
01. Vorspiel
02. Nun zaume dein Ross
03. Der alte Sturm, die alte Muh!
04. So ist es denn aus mit den ewigen Gottern
05. Nichts lerntest du
06. Was verlangst du
07. Deiner ew'gen Gattin
08. Schlimm furcht' ich, schloss der Streit
09. Als junger Liebe Lust mir verblich
10. Ein andres ist's, achte es wohl
11. So nimmst du von Siegmund den Sieg
12. So nimm meinen Segen, Niblungen-Sohn
Total 49.13

Лог создания рипа:

Exact Audio Copy V1.0 beta 3 from 29. August 2011
Отчёт EAC об извлечении, выполненном 27. марта 2015, 11:48
Richard Wagner / Die Walkure - CD2
Дисковод: _NEC DVD_RW ND-3570A Adapter: 2 ID: 0
Режим чтения : Скоростной
Коррекция смещения при чтении : 48
Способность читать области Lead-in и Lead-out : Нет
Заполнение пропущенных сэмплов тишиной : Да
Удаление блоков с тишиной в начале и конце : Нет
При вычислениях CRC использовались нулевые сэмплы : Да
Интерфейс : Встроенный Win32-интерфейс для Win NT/2000
Выходной формат : Пользовательский кодировщик
Выбранный битрейт : 896 kBit/s
Качество : Высокий
Добавление ID3-тега : Нет
Утилита сжатия : C:\Program Files\FLAC Frontend\tools\flac.exe
Дополнительные параметры : -V -8 -T "Date=%year%" -T "Genre=%genre%" %source%
TOC извлечённого CD
Трек | Старт | Длительность | Начальный сектор | Конечный сектор
---------------------------------------------------------------------
1 | 0:00.00 | 2:00.32 | 0 | 9031
2 | 2:00.32 | 2:48.15 | 9032 | 21646
3 | 4:48.47 | 4:56.08 | 21647 | 43854
4 | 9:44.55 | 3:19.35 | 43855 | 58814
5 | 13:04.15 | 6:15.02 | 58815 | 86941
6 | 19:19.17 | 2:21.35 | 86942 | 97551
7 | 21:40.52 | 3:32.60 | 97552 | 113511
8 | 25:13.37 | 5:25.60 | 113512 | 137946
9 | 30:39.22 | 4:46.65 | 137947 | 159461
10 | 35:26.12 | 5:46.40 | 159462 | 185451
11 | 41:12.52 | 3:28.40 | 185452 | 201091
12 | 44:41.17 | 4:32.58 | 201092 | 221549
Характеристики диапазона извлечения и сообщения об ошибках
Выбранный диапазон
Имя файла N:\Wagner - Der Ring des Nibelungen - Barenboim\II. Die Walkure\CD2\Richard Wagner - Die Walkure - CD2.wav
Пиковый уровень 98.8 %
Скорость извлечения 6.2 X
CRC теста B79214B9
CRC копии B79214B9
Копирование... OK
Ошибок не произошло
AccurateRip: сводка
Трек 1 : извлечено точно (доверие 10) [8504B680] (AR v2)
Трек 2 : извлечено точно (доверие 10) [EC5C8F4F] (AR v2)
Трек 3 : извлечено точно (доверие 10) [6F7D914B] (AR v2)
Трек 4 : извлечено точно (доверие 10) [8A23B5B0] (AR v2)
Трек 5 : извлечено точно (доверие 10) [B07C83DD] (AR v2)
Трек 6 : извлечено точно (доверие 10) [2B6E655A] (AR v2)
Трек 7 : извлечено точно (доверие 10) [60B40868] (AR v2)
Трек 8 : извлечено точно (доверие 10) [91FC5C95] (AR v2)
Трек 9 : извлечено точно (доверие 10) [5FD235F9] (AR v2)
Трек 10 : извлечено точно (доверие 10) [4AECA480] (AR v2)
Трек 11 : извлечено точно (доверие 10) [F0D2322C] (AR v2)
Трек 12 : извлечено точно (доверие 10) [E2A01D94] (AR v2)
Все треки извлечены точно
Конец отчёта
==== Контрольная сумма отчёта 4ACBE49A6AFC9CCEDB57D6B893EDCF7E2B7EF9AB9C90F1289926400E5C025FDA ====

CD3:Треклист:

01. So Sah ich Siegvater nie
02. Raste nun hier; gonne dir Ruh!
03. Hinweg! Flieh die Entweihte!
04. Wo bist du, Siegmund
05. Sigemund! Sieh auf mich!
06. Du sahest der Walkuer sehrenden Blick
07. Weh! Weh! Sussestes Weib
08. So jung und schon erschimmerst du mir
09. Zauberfest bezahmt ein Schlaf
10. Wehwalt! Wehwalt!
Total 45.09

Лог создания рипа:

Exact Audio Copy V1.0 beta 3 from 29. August 2011
Отчёт EAC об извлечении, выполненном 27. марта 2015, 12:08
Richard Wagner / Die Walkure - CD3
Дисковод: _NEC DVD_RW ND-3570A Adapter: 2 ID: 0
Режим чтения : Скоростной
Коррекция смещения при чтении : 48
Способность читать области Lead-in и Lead-out : Нет
Заполнение пропущенных сэмплов тишиной : Да
Удаление блоков с тишиной в начале и конце : Нет
При вычислениях CRC использовались нулевые сэмплы : Да
Интерфейс : Встроенный Win32-интерфейс для Win NT/2000
Выходной формат : Пользовательский кодировщик
Выбранный битрейт : 896 kBit/s
Качество : Высокий
Добавление ID3-тега : Нет
Утилита сжатия : C:\Program Files\FLAC Frontend\tools\flac.exe
Дополнительные параметры : -V -8 -T "Date=%year%" -T "Genre=%genre%" %source%
TOC извлечённого CD
Трек | Старт | Длительность | Начальный сектор | Конечный сектор
---------------------------------------------------------------------
1 | 0:00.00 | 3:17.00 | 0 | 14774
2 | 3:17.00 | 3:35.30 | 14775 | 30929
3 | 6:52.30 | 3:54.72 | 30930 | 48551
4 | 10:47.27 | 3:24.48 | 48552 | 63899
5 | 14:12.00 | 11:57.60 | 63900 | 117734
6 | 26:09.60 | 2:10.20 | 117735 | 127504
7 | 28:20.05 | 2:18.35 | 127505 | 137889
8 | 30:38.40 | 4:42.50 | 137890 | 159089
9 | 35:21.15 | 4:24.12 | 159090 | 178901
10 | 39:45.27 | 5:23.48 | 178902 | 203174
Характеристики диапазона извлечения и сообщения об ошибках
Выбранный диапазон
Имя файла N:\Wagner - Der Ring des Nibelungen - Barenboim\II. Die Walkure\CD3\Richard Wagner - Die Walkure - CD3.wav
Проблемы синхронизации 0:02:20
Пиковый уровень 98.8 %
Скорость извлечения 6.1 X
CRC теста 75539400
CRC копии 75539400
Копирование завершено
Ошибок не произошло
AccurateRip: сводка
Трек 1 : извлечено точно (доверие 10) [8E6B7E8F] (AR v2)
Трек 2 : извлечено точно (доверие 10) [10DDBA40] (AR v2)
Трек 3 : извлечено точно (доверие 10) [FE87A230] (AR v2)
Трек 4 : извлечено точно (доверие 10) [EA8D1DEB] (AR v2)
Трек 5 : извлечено точно (доверие 10) [968764CD] (AR v2)
Трек 6 : извлечено точно (доверие 10) [DBC6288F] (AR v2)
Трек 7 : извлечено точно (доверие 10) [9C4A4DBF] (AR v2)
Трек 8 : извлечено точно (доверие 10) [88A5C617] (AR v2)
Трек 9 : извлечено точно (доверие 10) [4929A513] (AR v2)
Трек 10 : извлечено точно (доверие 10) [90120AAC] (AR v2)
Все треки извлечены точно
Конец отчёта
==== Контрольная сумма отчёта B3EB29FFF0F8D8611E16BE07BA8B1A249AB66A4FC2B73C8DC4AF8529B332E91C ====

CD4:Треклист:

Act 3
01. Hojotoho! Hojotoho!
02. Schutzt mich und helft
03. Nicht sehre dich Sorge um mich
04. So fliehe denn eilig
05. Wo ist Brunnhild', wo die Verbrecherin
06. Hier bin ich, Vater
07. War es so schmahlich
08. Als Fricka den eignen Sinn dir entfremdet
09. So tatest du, was so gern zu tun ich begehrt
10. Du zeugtest ein edles Geschlecht
11. Was hast du erdacht, dass ich erdulde
12. Leb wohl, du kuhnes, herrliches Kind!
13. Der Augen leuchtendes Paar
14. Loge, hor! Lausche hieher!
Total 75.52

Лог создания рипа:

Exact Audio Copy V1.0 beta 3 from 29. August 2011
Отчёт EAC об извлечении, выполненном 27. марта 2015, 15:31
Richard Wagner / Die Walkure - CD4
Дисковод: _NEC DVD_RW ND-3570A Adapter: 2 ID: 0
Режим чтения : Скоростной
Коррекция смещения при чтении : 48
Способность читать области Lead-in и Lead-out : Нет
Заполнение пропущенных сэмплов тишиной : Да
Удаление блоков с тишиной в начале и конце : Нет
При вычислениях CRC использовались нулевые сэмплы : Да
Интерфейс : Встроенный Win32-интерфейс для Win NT/2000
Выходной формат : Пользовательский кодировщик
Выбранный битрейт : 896 kBit/s
Качество : Высокий
Добавление ID3-тега : Нет
Утилита сжатия : C:\Program Files\FLAC Frontend\tools\flac.exe
Дополнительные параметры : -V -8 -T "Date=%year%" -T "Genre=%genre%" %source%
TOC извлечённого CD
Трек | Старт | Длительность | Начальный сектор | Конечный сектор
---------------------------------------------------------------------
1 | 0:00.32 | 8:34.38 | 32 | 38619
2 | 8:34.70 | 3:50.37 | 38620 | 55906
3 | 12:25.32 | 2:21.63 | 55907 | 66544
4 | 14:47.20 | 4:48.00 | 66545 | 88144
5 | 19:35.20 | 3:59.42 | 88145 | 106111
6 | 23:34.62 | 8:41.18 | 106112 | 145204
7 | 32:16.05 | 5:04.40 | 145205 | 168044
8 | 37:20.45 | 6:03.37 | 168045 | 195306
9 | 43:24.07 | 6:43.25 | 195307 | 225556
10 | 50:07.32 | 2:34.10 | 225557 | 237116
11 | 52:41.42 | 2:53.18 | 237117 | 250109
12 | 55:34.60 | 5:06.02 | 250110 | 273061
13 | 60:40.62 | 7:14.70 | 273062 | 305681
14 | 67:55.57 | 4:57.18 | 305682 | 327974
Характеристики диапазона извлечения и сообщения об ошибках
Выбранный диапазон
Имя файла N:\Wagner - Der Ring des Nibelungen - Barenboim\II. Die Walkure\CD4\Richard Wagner - Die Walkure - CD4.wav
Пиковый уровень 97.7 %
Скорость извлечения 7.6 X
CRC теста 8CD1AE39
CRC копии 8CD1AE39
Копирование... OK
Ошибок не произошло
AccurateRip: сводка
Трек 1 : извлечено точно (доверие 10) [2744CCB2] (AR v2)
Трек 2 : извлечено точно (доверие 10) [9052D39B] (AR v2)
Трек 3 : извлечено точно (доверие 10) [A047CA1F] (AR v2)
Трек 4 : извлечено точно (доверие 10) [7EF67F82] (AR v2)
Трек 5 : извлечено точно (доверие 10) [1CCDAF51] (AR v2)
Трек 6 : извлечено точно (доверие 10) [ED892265] (AR v2)
Трек 7 : извлечено точно (доверие 10) [AE1BCC67] (AR v2)
Трек 8 : извлечено точно (доверие 10) [98DB6CB1] (AR v2)
Трек 9 : извлечено точно (доверие 10) [1AAB9869] (AR v2)
Трек 10 : извлечено точно (доверие 10) [9089C456] (AR v2)
Трек 11 : извлечено точно (доверие 10) [64F08A98] (AR v2)
Трек 12 : извлечено точно (доверие 10) [83701C50] (AR v2)
Трек 13 : извлечено точно (доверие 10) [CFE3B7BB] (AR v2)
Трек 14 : извлечено точно (доверие 10) [94DE8639] (AR v2)
Все треки извлечены точно
Конец отчёта
==== Контрольная сумма отчёта 2AD10ED9B3EA71832451620DFBA4A3BA9849AD17223ED1C128C4FD0B1FCE3274 ====

Исполнители:

Paul Elming (Siegmund)
Nadine Secunde (Sieglinde)
Matthias Hölle (Hunding)
Anne Evans (Brünnhilde)
John Tomlinson (Wotan)
Ruth Floeren (Ortlinde)
Shirley Close (Waltraute)
Hitomi Katagiri (Schwertleite)
Eva-Faria Bundschuh (Helmwige)
Linda Finnie (Siegrune/Fricka)
Birgitta Svendén (Grimgerde)
Eva Johannson (Gerhilde)
Hebe Kijkstra (Rossweisse)
Bayreuth Festival Orchestra and Choir
Daniel Barenboim

Siegfried:CD1:Треклист:

Act 1
01. Vorspiel
02. Zwangvolle Plage! Muh ohne Zweck!
03. Hoiho! Hoiho! Hau ein! Hau ein!
04. Da hast du die Stucken, schandlicher Stumper
05. Als zullendes Kind zog ich dich auf
06. Vieles lehrtest du, Mime
07. Mein Kind, das lehrt dich kennen
08. Wo hast du nun, Mime, dein minniges Weibchen
09. Einst lag wimmernd ein Weib
10. Und diese Stucken sollst du mir schmieden
11. Da sturmt er hin!
12. Heil dir weiser Schmied!
13. Hier sitz' ich am Herd, und setze mein Haupt
14. Du ruhrtest dich viel auf der Erde Rucken
15. Viel, Wanderer, weisst du mir aus der Erde Nabelnest
16. Viel, Wanderer, weisst du mir von der Erde rauhem Rucken
17. Fragen und Haupt hast du gelost
18. Nun, ehrlicher Zwerg, sag mir zum ersten
19. Wie doch genau das Geschlecht du mir nennst
20. Ha ha ha ha! Der witzigste bist du unter den Weisen
21. Dreimal solltest du fragen
22. Verfluchtes Licht!
23. He da! Du Fauler!
24. Fuhltest du nie im finstren Wald
25. Sonderlich seltsam muB das sein!
26. Feine Finten weiB mir der Faule
27. Notung! Notung! Neidliches Schwert!
28. Bald schwing' ich dich als mein Schwert!
29. Hoho! Hoho! Hahei!
Total 79.44

Лог создания рипа:

Exact Audio Copy V1.0 beta 3 from 29. August 2011
Отчёт EAC об извлечении, выполненном 27. марта 2015, 16:24
Richard Wagner / Siegfried - CD1
Дисковод: _NEC DVD_RW ND-3570A Adapter: 2 ID: 0
Режим чтения : Скоростной
Коррекция смещения при чтении : 48
Способность читать области Lead-in и Lead-out : Нет
Заполнение пропущенных сэмплов тишиной : Да
Удаление блоков с тишиной в начале и конце : Нет
При вычислениях CRC использовались нулевые сэмплы : Да
Интерфейс : Встроенный Win32-интерфейс для Win NT/2000
Выходной формат : Пользовательский кодировщик
Выбранный битрейт : 896 kBit/s
Качество : Высокий
Добавление ID3-тега : Нет
Утилита сжатия : C:\Program Files\FLAC Frontend\tools\flac.exe
Дополнительные параметры : -V -8 -T "Date=%year%" -T "Genre=%genre%" %source%
TOC извлечённого CD
Трек | Старт | Длительность | Начальный сектор | Конечный сектор
---------------------------------------------------------------------
1 | 0:00.00 | 3:52.20 | 0 | 17419
2 | 3:52.20 | 3:22.60 | 17420 | 32629
3 | 7:15.05 | 1:35.10 | 32630 | 39764
4 | 8:50.15 | 2:19.57 | 39765 | 50246
5 | 11:09.72 | 1:22.45 | 50247 | 56441
6 | 12:32.42 | 1:58.05 | 56442 | 65296
7 | 14:30.47 | 2:51.00 | 65297 | 78121
8 | 17:21.47 | 3:03.50 | 78122 | 91896
9 | 20:25.22 | 5:23.08 | 91897 | 116129
10 | 25:48.30 | 1:48.20 | 116130 | 124249
11 | 27:36.50 | 1:18.67 | 124250 | 130166
12 | 28:55.42 | 3:15.15 | 130167 | 144806
13 | 32:10.57 | 1:42.45 | 144807 | 152501
14 | 33:53.27 | 2:01.13 | 152502 | 161589
15 | 35:54.40 | 2:22.12 | 161590 | 172251
16 | 38:16.52 | 3:48.48 | 172252 | 189399
17 | 42:05.25 | 2:27.45 | 189400 | 200469
18 | 44:32.70 | 2:05.72 | 200470 | 209916
19 | 46:38.67 | 1:55.45 | 209917 | 218586
20 | 48:34.37 | 1:06.70 | 218587 | 223606
21 | 49:41.32 | 2:13.65 | 223607 | 233646
22 | 51:55.22 | 1:03.33 | 233647 | 238404
23 | 52:58.55 | 3:15.15 | 238405 | 253044
24 | 56:13.70 | 1:49.02 | 253045 | 261221
25 | 58:02.72 | 2:39.68 | 261222 | 273214
26 | 60:42.65 | 3:18.65 | 273215 | 288129
27 | 64:01.55 | 4:37.40 | 288130 | 308944
28 | 68:39.20 | 3:09.67 | 308945 | 323186
29 | 71:49.12 | 5:55.63 | 323187 | 349874
Характеристики диапазона извлечения и сообщения об ошибках
Выбранный диапазон
Имя файла N:\Wagner - Der Ring des Nibelungen - Barenboim\III. Siegfried\CD1\Richard Wagner - Siegfried - CD1.wav
Пиковый уровень 99.1 %
Скорость извлечения 7.7 X
CRC теста 608E347B
CRC копии 608E347B
Копирование... OK
Ошибок не произошло
AccurateRip: сводка
Трек 1 : извлечено точно (доверие 10) [5D9E246F] (AR v2)
Трек 2 : извлечено точно (доверие 10) [BFB492D2] (AR v2)
Трек 3 : извлечено точно (доверие 10) [026ABC67] (AR v2)
Трек 4 : извлечено точно (доверие 10) [32AE996D] (AR v2)
Трек 5 : извлечено точно (доверие 10) [F2DDD3A6] (AR v2)
Трек 6 : извлечено точно (доверие 10) [85869A91] (AR v2)
Трек 7 : извлечено точно (доверие 10) [A5F4D184] (AR v2)
Трек 8 : извлечено точно (доверие 10) [B18B5172] (AR v2)
Трек 9 : извлечено точно (доверие 10) [A8D1F10C] (AR v2)
Трек 10 : извлечено точно (доверие 10) [1CD50A6F] (AR v2)
Трек 11 : извлечено точно (доверие 10) [CE8A45C4] (AR v2)
Трек 12 : извлечено точно (доверие 10) [45F3897E] (AR v2)
Трек 13 : извлечено точно (доверие 10) [63C1FC20] (AR v2)
Трек 14 : извлечено точно (доверие 10) [6D2735C6] (AR v2)
Трек 15 : извлечено точно (доверие 10) [F0AD58B2] (AR v2)
Трек 16 : извлечено точно (доверие 10) [6E96F752] (AR v2)
Трек 17 : извлечено точно (доверие 10) [5C5736F5] (AR v2)
Трек 18 : извлечено точно (доверие 10) [E6A40389] (AR v2)
Трек 19 : извлечено точно (доверие 10) [1E0B804B] (AR v2)
Трек 20 : извлечено точно (доверие 10) [4B5FCE20] (AR v2)
Трек 21 : извлечено точно (доверие 10) [3AB0EE99] (AR v2)
Трек 22 : извлечено точно (доверие 10) [0D3BE17B] (AR v2)
Трек 23 : извлечено точно (доверие 10) [11E04DFC] (AR v2)
Трек 24 : извлечено точно (доверие 10) [2D59CDFF] (AR v2)
Трек 25 : извлечено точно (доверие 10) [05D4F14E] (AR v2)
Трек 26 : извлечено точно (доверие 10) [74F16CFF] (AR v2)
Трек 27 : извлечено точно (доверие 10) [2A28088E] (AR v2)
Трек 28 : извлечено точно (доверие 10) [18B782EF] (AR v2)
Трек 29 : извлечено точно (доверие 10) [E9FF38EB] (AR v2)
Все треки извлечены точно
Конец отчёта
==== Контрольная сумма отчёта 6299B7FCB3DA01465CCA81B08C657EE2496DDC4293E7D3017128FEC914C1511A ====

CD2:Треклист:

Act 2
01. Vorspiel
02. In Wald und Nacht
03. Wer naht dort schimmernd im Schalten
04. Mit mir nicht, hadre mit Mime
05. Fafner! Fafner! Erwache, Wurm!
06. Nun, Alberich! Das schlug fehl
07. Wir sind zur Stelle!
08. Dass der mein Vater nicht ist
09. Aber - wie sah meine Mutter wohl aus
10. Meine Mutter - ein Menschenweib!
Total 42.54

Лог создания рипа:

Exact Audio Copy V1.0 beta 3 from 29. August 2011
Отчёт EAC об извлечении, выполненном 27. марта 2015, 16:42
Richard Wagner / Siegfried - CD2
Дисковод: _NEC DVD_RW ND-3570A Adapter: 2 ID: 0
Режим чтения : Скоростной
Коррекция смещения при чтении : 48
Способность читать области Lead-in и Lead-out : Нет
Заполнение пропущенных сэмплов тишиной : Да
Удаление блоков с тишиной в начале и конце : Нет
При вычислениях CRC использовались нулевые сэмплы : Да
Интерфейс : Встроенный Win32-интерфейс для Win NT/2000
Выходной формат : Пользовательский кодировщик
Выбранный битрейт : 896 kBit/s
Качество : Высокий
Добавление ID3-тега : Нет
Утилита сжатия : C:\Program Files\FLAC Frontend\tools\flac.exe
Дополнительные параметры : -V -8 -T "Date=%year%" -T "Genre=%genre%" %source%
TOC извлечённого CD
Трек | Старт | Длительность | Начальный сектор | Конечный сектор
---------------------------------------------------------------------
1 | 0:00.00 | 7:39.05 | 0 | 34429
2 | 7:39.05 | 2:28.00 | 34430 | 45529
3 | 10:07.05 | 6:26.15 | 45530 | 74494
4 | 16:33.20 | 2:37.50 | 74495 | 86319
5 | 19:10.70 | 3:05.42 | 86320 | 100236
6 | 22:16.37 | 4:08.68 | 100237 | 118904
7 | 26:25.30 | 6:06.30 | 118905 | 146384
8 | 32:31.60 | 1:47.40 | 146385 | 154449
9 | 34:19.25 | 2:26.02 | 154450 | 165401
10 | 36:45.27 | 6:08.48 | 165402 | 193049
Характеристики диапазона извлечения и сообщения об ошибках
Выбранный диапазон
Имя файла N:\Wagner - Der Ring des Nibelungen - Barenboim\III. Siegfried\CD2\Richard Wagner - Siegfried - CD2.wav
Пиковый уровень 90.7 %
Скорость извлечения 6.0 X
CRC теста 6BD3DBD9
CRC копии 6BD3DBD9
Копирование... OK
Ошибок не произошло
AccurateRip: сводка
Трек 1 : извлечено точно (доверие 10) [161F32A3] (AR v2)
Трек 2 : извлечено точно (доверие 10) [6959A07C] (AR v2)
Трек 3 : извлечено точно (доверие 10) [C36A1DC3] (AR v2)
Трек 4 : извлечено точно (доверие 10) [EBBD7507] (AR v2)
Трек 5 : извлечено точно (доверие 10) [2B4ECAA5] (AR v2)
Трек 6 : извлечено точно (доверие 10) [C7ECB6FC] (AR v2)
Трек 7 : извлечено точно (доверие 10) [1599F5FA] (AR v2)
Трек 8 : извлечено точно (доверие 10) [8A415C50] (AR v2)
Трек 9 : извлечено точно (доверие 10) [6295F24C] (AR v2)
Трек 10 : извлечено точно (доверие 10) [AE120A6B] (AR v2)
Все треки извлечены точно
Конец отчёта
==== Контрольная сумма отчёта 0896E75973A28026F7E53D7C5BB102CE0DB3B05C14166905997DCAC95E135703 ====

CD3:Треклист:

01. Haha! Da hatte mein Lied mir was Liebes erblasen!
02. Da liegt, neidischer Kerl
03. Zur Kunde taucht kein Toter
04. Wohin schleichst du eilig und schlau
05. Was ihr mir nutzt, weiB ich nicht
06. Willkommen Siegfried
07. Sieh, du bist mude von harter Muh
08. Neides Zoll zahlt Notung
09. Heiss ward mir von der harten Last!
10. Nun sing! Ich lausche dem Gesang
Act 3
11. Vorspiel
12. Wache, Wala! Wala! Erwach!
13. Stark ruft das Lied
14. Mein Schlaf ist Traumen
Total 51.08

Лог создания рипа:

Exact Audio Copy V1.0 beta 3 from 29. August 2011
Отчёт EAC об извлечении, выполненном 27. марта 2015, 17:29
Richard Wagner / Siegfried - CD3
Дисковод: _NEC DVD_RW ND-3570A Adapter: 2 ID: 0
Режим чтения : Скоростной
Коррекция смещения при чтении : 48
Способность читать области Lead-in и Lead-out : Нет
Заполнение пропущенных сэмплов тишиной : Да
Удаление блоков с тишиной в начале и конце : Нет
При вычислениях CRC использовались нулевые сэмплы : Да
Интерфейс : Встроенный Win32-интерфейс для Win NT/2000
Выходной формат : Пользовательский кодировщик
Выбранный битрейт : 896 kBit/s
Качество : Высокий
Добавление ID3-тега : Нет
Утилита сжатия : C:\Program Files\FLAC Frontend\tools\flac.exe
Дополнительные параметры : -V -8 -T "Date=%year%" -T "Genre=%genre%" %source%
TOC извлечённого CD
Трек | Старт | Длительность | Начальный сектор | Конечный сектор
---------------------------------------------------------------------
1 | 0:00.00 | 5:09.12 | 0 | 23186
2 | 5:09.12 | 5:54.13 | 23187 | 49749
3 | 11:03.25 | 2:07.50 | 49750 | 59324
4 | 13:11.00 | 2:37.22 | 59325 | 71121
5 | 15:48.22 | 2:26.25 | 71122 | 82096
6 | 18:14.47 | 3:12.60 | 82097 | 96556
7 | 21:27.32 | 3:43.70 | 96557 | 113351
8 | 25:11.27 | 3:05.15 | 113352 | 127241
9 | 28:16.42 | 3:40.70 | 127242 | 143811
10 | 31:57.37 | 4:10.25 | 143812 | 162586
11 | 36:07.62 | 2:18.35 | 162587 | 172971
12 | 38:26.22 | 1:45.38 | 172972 | 180884
13 | 40:11.60 | 2:44.42 | 180885 | 193226
14 | 42:56.27 | 8:12.48 | 193227 | 230174
Характеристики диапазона извлечения и сообщения об ошибках
Выбранный диапазон
Имя файла N:\Wagner - Der Ring des Nibelungen - Barenboim\III. Siegfried\CD3\Richard Wagner - Siegfried - CD3.wav
Проблемы синхронизации 0:00:04
Проблемы синхронизации 0:00:06
Проблемы синхронизации 0:04:24
Проблемы синхронизации 0:09:19
Проблемы синхронизации 0:20:49
Проблемы синхронизации 0:42:15
Проблемы синхронизации 0:50:29
Проблемы синхронизации 0:50:38
Пиковый уровень 94.7 %
Скорость извлечения 6.3 X
CRC теста BFC6927C
CRC копии BFC6927C
Копирование завершено
Ошибок не произошло
AccurateRip: сводка
Трек 1 : извлечено точно (доверие 10) [F99DCFCF] (AR v2)
Трек 2 : извлечено точно (доверие 10) [E577E822] (AR v2)
Трек 3 : извлечено точно (доверие 10) [7978D864] (AR v2)
Трек 4 : извлечено точно (доверие 10) [5DDDD54E] (AR v2)
Трек 5 : извлечено точно (доверие 10) [DA579211] (AR v2)
Трек 6 : извлечено точно (доверие 10) [70FDD790] (AR v2)
Трек 7 : извлечено точно (доверие 10) [C81CDF9E] (AR v2)
Трек 8 : извлечено точно (доверие 10) [DD2539DC] (AR v2)
Трек 9 : извлечено точно (доверие 10) [345CFAC7] (AR v2)
Трек 10 : извлечено точно (доверие 10) [42AE071B] (AR v2)
Трек 11 : извлечено точно (доверие 10) [A220CB81] (AR v2)
Трек 12 : извлечено точно (доверие 10) [BC2585AB] (AR v2)
Трек 13 : извлечено точно (доверие 10) [A43B8BF6] (AR v2)
Трек 14 : извлечено точно (доверие 10) [798D2BC9] (AR v2)
Все треки извлечены точно
Конец отчёта
==== Контрольная сумма отчёта AF824F505C98B1DEA18AA44EE659D1F6C44B1D18796EBB4951DFA290A72F21A0 ====

CD4:Треклист:

01. Dir Unweisen ruf' ich ins Ohr
02. Dort seh' ich Siegfried nahn
03. Was lachst du mich aus Alter Frager!
04. Kenntest du mich, kuhner SproB
05. Mit zerfochtner Waffe floh mir der Feige
06. Selige Ode auf sonniger Hoh'!
07. Das ist kein Mann!
08. Heil dir, Sonne!
09. O Siegfried! Siegfried! Seliger Held
10. Dort seh' ich Grane, mein selig RoB
11. Kein Gott nahte mir je!
12. Ewig war ich, ewig bin ich
13. Dich lieb' ich o liebtest mich du!
14. Lachend muss ich dich lieben
Total 68.23

Лог создания рипа:

Exact Audio Copy V1.0 beta 3 from 29. August 2011
Отчёт EAC об извлечении, выполненном 27. марта 2015, 22:00
Richard Wagner / Siegfried - CD4
Дисковод: _NEC DVD_RW ND-3570A Adapter: 2 ID: 0
Режим чтения : Скоростной
Коррекция смещения при чтении : 48
Способность читать области Lead-in и Lead-out : Нет
Заполнение пропущенных сэмплов тишиной : Да
Удаление блоков с тишиной в начале и конце : Нет
При вычислениях CRC использовались нулевые сэмплы : Да
Интерфейс : Встроенный Win32-интерфейс для Win NT/2000
Выходной формат : Пользовательский кодировщик
Выбранный битрейт : 896 kBit/s
Качество : Высокий
Добавление ID3-тега : Нет
Утилита сжатия : C:\Program Files\FLAC Frontend\tools\flac.exe
Дополнительные параметры : -V -8 -T "Date=%year%" -T "Genre=%genre%" %source%
TOC извлечённого CD
Трек | Старт | Длительность | Начальный сектор | Конечный сектор
---------------------------------------------------------------------
1 | 0:00.00 | 4:01.20 | 0 | 18094
2 | 4:01.20 | 3:50.12 | 18095 | 35356
3 | 7:51.32 | 2:46.35 | 35357 | 47841
4 | 10:37.67 | 4:51.33 | 47842 | 69699
5 | 15:29.25 | 3:30.30 | 69700 | 85479
6 | 18:59.55 | 7:43.42 | 85480 | 120246
7 | 26:43.22 | 7:31.10 | 120247 | 154081
8 | 34:14.32 | 6:27.63 | 154082 | 183169
9 | 40:42.20 | 7:22.35 | 183170 | 216354
10 | 48:04.55 | 3:54.27 | 216355 | 233931
11 | 51:59.07 | 4:42.68 | 233932 | 255149
12 | 56:42.00 | 4:24.00 | 255150 | 274949
13 | 61:06.00 | 5:15.07 | 274950 | 298581
14 | 66:21.07 | 2:01.68 | 298582 | 307724
Характеристики диапазона извлечения и сообщения об ошибках
Выбранный диапазон
Имя файла N:\Wagner - Der Ring des Nibelungen - Barenboim\III. Siegfried\CD4\Richard Wagner - Siegfried - CD4.wav
Проблемы синхронизации 0:26:38
Проблемы синхронизации 0:41:22
Проблемы синхронизации 0:41:24
Пиковый уровень 90.9 %
Скорость извлечения 7.5 X
CRC теста 1858D351
CRC копии 1858D351
Копирование завершено
Ошибок не произошло
AccurateRip: сводка
Трек 1 : извлечено точно (доверие 10) [E47AAFFA] (AR v2)
Трек 2 : извлечено точно (доверие 10) [4872B7C5] (AR v2)
Трек 3 : извлечено точно (доверие 10) [6F84ED45] (AR v2)
Трек 4 : извлечено точно (доверие 10) [016F402B] (AR v2)
Трек 5 : извлечено точно (доверие 10) [0513B8B6] (AR v2)
Трек 6 : извлечено точно (доверие 10) [5A44EEAC] (AR v2)
Трек 7 : извлечено точно (доверие 10) [6E284FAD] (AR v2)
Трек 8 : извлечено точно (доверие 10) [AA2923C9] (AR v2)
Трек 9 : извлечено точно (доверие 10) [5D8F5231] (AR v2)
Трек 10 : извлечено точно (доверие 10) [763A597C] (AR v2)
Трек 11 : извлечено точно (доверие 10) [30A8189B] (AR v2)
Трек 12 : извлечено точно (доверие 10) [7F7BE93C] (AR v2)
Трек 13 : извлечено точно (доверие 10) [070B70A9] (AR v2)
Трек 14 : извлечено точно (доверие 10) [A3B4B24A] (AR v2)
Все треки извлечены точно
Конец отчёта
==== Контрольная сумма отчёта 9F112899B0611AA8FDD3335C2F76C5042D72AD05BBE40E15E1CA313E9C25B958 ====

Исполнители:

Siegfried Jerusalem (Siegfried)
Günter von Kannen (Alberich)
Anne Evans (Brünnhilde)
Philip Kang (Fafner)
John Tomlinson (Wanderer)
Birgitta Svendén (Erda)
Graham Clark (Mime)
Hilde Leidland (Waldvogel)
Bayreuth Festival Orchestra and Choir
Daniel Barenboim

Götterdämmerung:CD1:Треклист:

01. Vorspiel
02. Welch Licht leuchtet dort
03. Singe Schwester, dir werf ich's zu
04. Spinne Schwester, und singe!
05. Tagesgrauen
06. Zu neuen Taten, teurer Helde
07. Willst Du mir Minne Schenken
08. Lass ich, Liebste, dich hier
09. Durch Deine Tugend allein
10. Siegfrieds Rheinfahrt
Act1
11. Nun hor, Hagen
12. Wen ratst du zu frein
13. Brachte Siegfried die Braut dir heim
14. Jagt er auf Taten wonnig umher
Total 54.03

Лог создания рипа:

Exact Audio Copy V1.0 beta 3 from 29. August 2011
Отчёт EAC об извлечении, выполненном 28. марта 2015, 19:55
Richard Wagner / Gotterdammerung - CD1
Дисковод: _NEC DVD_RW ND-3570A Adapter: 2 ID: 0
Режим чтения : Скоростной
Коррекция смещения при чтении : 48
Способность читать области Lead-in и Lead-out : Нет
Заполнение пропущенных сэмплов тишиной : Да
Удаление блоков с тишиной в начале и конце : Нет
При вычислениях CRC использовались нулевые сэмплы : Да
Интерфейс : Встроенный Win32-интерфейс для Win NT/2000
Выходной формат : Пользовательский кодировщик
Выбранный битрейт : 896 kBit/s
Качество : Высокий
Добавление ID3-тега : Нет
Утилита сжатия : C:\Program Files\FLAC Frontend\tools\flac.exe
Дополнительные параметры : -V -8 -T "Date=%year%" -T "Genre=%genre%" %source%
TOC извлечённого CD
Трек | Старт | Длительность | Начальный сектор | Конечный сектор
---------------------------------------------------------------------
1 | 0:00.00 | 2:29.65 | 0 | 11239
2 | 2:29.65 | 5:09.10 | 11240 | 34424
3 | 7:39.00 | 4:54.62 | 34425 | 56536
4 | 12:33.62 | 6:41.20 | 56537 | 86631
5 | 19:15.07 | 3:52.18 | 86632 | 104049
6 | 23:07.25 | 3:33.25 | 104050 | 120049
7 | 26:40.50 | 2:16.30 | 120050 | 130279
8 | 28:57.05 | 2:32.62 | 130280 | 141741
9 | 31:29.67 | 3:42.23 | 141742 | 158414
10 | 35:12.15 | 5:33.22 | 158415 | 183411
11 | 40:45.37 | 2:08.10 | 183412 | 193021
12 | 42:53.47 | 3:49.60 | 193022 | 210256
13 | 46:43.32 | 3:41.48 | 210257 | 226879
14 | 50:25.05 | 3:35.70 | 226880 | 243074
Характеристики диапазона извлечения и сообщения об ошибках
Выбранный диапазон
Имя файла N:\Wagner - Der Ring des Nibelungen - Barenboim\IV. Gotterdammerung\CD1\Richard Wagner - Gotterdammerung - CD1.wav
Пиковый уровень 95.4 %
Скорость извлечения 6.4 X
CRC теста 6F4D7C74
CRC копии 6F4D7C74
Копирование... OK
Ошибок не произошло
AccurateRip: сводка
Трек 1 : извлечено точно (доверие 10) [D92AF1E7] (AR v2)
Трек 2 : извлечено точно (доверие 10) [525CE041] (AR v2)
Трек 3 : извлечено точно (доверие 10) [CB2B2291] (AR v2)
Трек 4 : извлечено точно (доверие 10) [D04ADC85] (AR v2)
Трек 5 : извлечено точно (доверие 10) [715F193A] (AR v2)
Трек 6 : извлечено точно (доверие 10) [3BC1A486] (AR v2)
Трек 7 : извлечено точно (доверие 10) [EEEFC6A2] (AR v2)
Трек 8 : извлечено точно (доверие 10) [E11228B4] (AR v2)
Трек 9 : извлечено точно (доверие 10) [00060BDB] (AR v2)
Трек 10 : извлечено точно (доверие 10) [31BEC28D] (AR v2)
Трек 11 : извлечено точно (доверие 10) [B41D106F] (AR v2)
Трек 12 : извлечено точно (доверие 10) [5B8669DC] (AR v2)
Трек 13 : извлечено точно (доверие 10) [F9C87576] (AR v2)
Трек 14 : извлечено точно (доверие 10) [1B1AD5EA] (AR v2)
Все треки извлечены точно
Конец отчёта
==== Контрольная сумма отчёта 8BF09385B6C0A4ECA153257FFEB7C7B32612867EAFC37774EFF4074E57B462F3 ====

CD2:Треклист:

01. Wer ist Gibichs Sohn?
02. Begrusse froh, o Held, die Halle
03. Willkommen, Gast, in Gibichs Haus!
04. Deinem Bruder bat ich mich zum Mann
05. Bluhenden Lebens labendes Blut
06. Frisch auf die Fahrt!
07. Hier sitz' ich zur Wacht
08. Altgewohntes Gerausch
09. Hore mit Sinn, was ich dir sage !
10. Welche banger Traume Maren
11. Blitzend Gewolk
12. Brunnhild?! Ein Freier kam
Total 69.45

Лог создания рипа:

Exact Audio Copy V1.0 beta 3 from 29. August 2011
Отчёт EAC об извлечении, выполненном 28. марта 2015, 20:48
Richard Wagner / Gotterdammerung - CD2
Дисковод: _NEC DVD_RW ND-3570A Adapter: 2 ID: 0
Режим чтения : Скоростной
Коррекция смещения при чтении : 48
Способность читать области Lead-in и Lead-out : Нет
Заполнение пропущенных сэмплов тишиной : Да
Удаление блоков с тишиной в начале и конце : Нет
При вычислениях CRC использовались нулевые сэмплы : Да
Интерфейс : Встроенный Win32-интерфейс для Win NT/2000
Выходной формат : Пользовательский кодировщик
Выбранный битрейт : 896 kBit/s
Качество : Высокий
Добавление ID3-тега : Нет
Утилита сжатия : C:\Program Files\FLAC Frontend\tools\flac.exe
Дополнительные параметры : -V -8 -T "Date=%year%" -T "Genre=%genre%" %source%
TOC извлечённого CD
Трек | Старт | Длительность | Начальный сектор | Конечный сектор
---------------------------------------------------------------------
1 | 0:00.00 | 2:12.45 | 0 | 9944
2 | 2:12.45 | 3:48.25 | 9945 | 27069
3 | 6:00.70 | 3:31.47 | 27070 | 42941
4 | 9:32.42 | 4:11.00 | 42942 | 61766
5 | 13:43.42 | 3:00.38 | 61767 | 75304
6 | 16:44.05 | 2:26.22 | 75305 | 86276
7 | 19:10.27 | 11:07.58 | 86277 | 136359
8 | 30:18.10 | 8:22.40 | 136360 | 174049
9 | 38:40.50 | 11:43.15 | 174050 | 226789
10 | 50:23.65 | 6:28.62 | 226790 | 255951
11 | 56:52.52 | 3:36.23 | 255952 | 272174
12 | 60:29.00 | 9:14.00 | 272175 | 313724
Характеристики диапазона извлечения и сообщения об ошибках
Выбранный диапазон
Имя файла N:\Wagner - Der Ring des Nibelungen - Barenboim\IV. Gotterdammerung\CD2\Richard Wagner - Gotterdammerung - CD2.wav
Пиковый уровень 98.4 %
Скорость извлечения 7.5 X
CRC теста A5719BE9
CRC копии A5719BE9
Копирование... OK
Ошибок не произошло
AccurateRip: сводка
Трек 1 : извлечено точно (доверие 10) [26BDEF09] (AR v2)
Трек 2 : извлечено точно (доверие 10) [FE5A49A4] (AR v2)
Трек 3 : извлечено точно (доверие 10) [9D8286DE] (AR v2)
Трек 4 : извлечено точно (доверие 10) [A8A7256F] (AR v2)
Трек 5 : извлечено точно (доверие 10) [7A1EE9F6] (AR v2)
Трек 6 : извлечено точно (доверие 10) [0D10A2FE] (AR v2)
Трек 7 : извлечено точно (доверие 10) [B3B6D7F0] (AR v2)
Трек 8 : извлечено точно (доверие 10) [820C772F] (AR v2)
Трек 9 : извлечено точно (доверие 10) [EB050AC8] (AR v2)
Трек 10 : извлечено точно (доверие 10) [F8E1AC7C] (AR v2)
Трек 11 : извлечено точно (доверие 10) [2033B27E] (AR v2)
Трек 12 : извлечено точно (доверие 10) [B62E4889] (AR v2)
Все треки извлечены точно
Конец отчёта
==== Контрольная сумма отчёта EA224E3E3A9BCD5369638B218E86BBE9EEBC7BEE43FFB56F9980B5D33CD42A29 ====

CD3:Треклист:

Act 2
01. Vorspiel
02. Schlafst Du, Hagen, mein Sohn?
03. Der ewigen Macht, wer erbte sie?
04. Hoihoi, Hagen ! Muder Mann!
05. Heiss mich willkommen, Gibichskind!
06. Hoiho! Hoiho!
07. Was tost das Horn
08. Rustet Euch wohl und rastet nicht
09. Heil Dir, Gunther !
10. Gegrusst sei, teurer Held
11. Einen Ring sah ich an Deiner Hand
12. Betrug ! Betrug !
13. Achtest du so der eigenen Ehre?
14. Helle Wehr ! Heilige Waffe!
15. Hilf, Donner
16. Welches Unholds List liegt hier verhohlen?
17. Wer bietet mir nun das Schwert
18. Auf, Gunther, edler Gibichung!
19. Muss sein Tod sie betruben
Total 66.29

Лог создания рипа:

Exact Audio Copy V1.0 beta 3 from 29. August 2011
Отчёт EAC об извлечении, выполненном 28. марта 2015, 21:40
Richard Wagner / Gotterdammerung - CD3
Дисковод: _NEC DVD_RW ND-3570A Adapter: 2 ID: 0
Режим чтения : Скоростной
Коррекция смещения при чтении : 48
Способность читать области Lead-in и Lead-out : Нет
Заполнение пропущенных сэмплов тишиной : Да
Удаление блоков с тишиной в начале и конце : Нет
При вычислениях CRC использовались нулевые сэмплы : Да
Интерфейс : Встроенный Win32-интерфейс для Win NT/2000
Выходной формат : Пользовательский кодировщик
Выбранный битрейт : 896 kBit/s
Качество : Высокий
Добавление ID3-тега : Нет
Утилита сжатия : C:\Program Files\FLAC Frontend\tools\flac.exe
Дополнительные параметры : -V -8 -T "Date=%year%" -T "Genre=%genre%" %source%
TOC извлечённого CD
Трек | Старт | Длительность | Начальный сектор | Конечный сектор
---------------------------------------------------------------------
1 | 0:00.00 | 3:29.37 | 0 | 15711
2 | 3:29.37 | 3:25.10 | 15712 | 31096
3 | 6:54.47 | 5:43.10 | 31097 | 56831
4 | 12:37.57 | 2:27.23 | 56832 | 67879
5 | 15:05.05 | 3:38.02 | 67880 | 84231
6 | 18:43.07 | 1:20.55 | 84232 | 90286
7 | 20:03.62 | 1:06.45 | 90287 | 95281
8 | 21:10.32 | 2:45.18 | 95282 | 107674
9 | 23:55.50 | 6:41.55 | 107675 | 137804
10 | 30:37.30 | 4:05.70 | 137805 | 156249
11 | 34:43.25 | 2:42.45 | 156250 | 168444
12 | 37:25.70 | 3:31.47 | 168445 | 184316
13 | 40:57.42 | 3:03.50 | 184317 | 198091
14 | 44:01.17 | 2:31.38 | 198092 | 209454
15 | 46:32.55 | 4:57.45 | 209455 | 231774
16 | 51:30.25 | 2:49.67 | 231775 | 244516
17 | 54:20.17 | 4:10.30 | 244517 | 263296
18 | 58:30.47 | 5:24.13 | 263297 | 287609
19 | 63:54.60 | 2:32.15 | 287610 | 299024
Характеристики диапазона извлечения и сообщения об ошибках
Выбранный диапазон
Имя файла N:\Wagner - Der Ring des Nibelungen - Barenboim\IV. Gotterdammerung\CD3\Richard Wagner - Gotterdammerung - CD3.wav
Проблемы синхронизации 0:25:17
Проблемы синхронизации 0:26:09
Пиковый уровень 98.0 %
Скорость извлечения 7.5 X
CRC теста 2B211D3C
CRC копии 2B211D3C
Копирование завершено
Ошибок не произошло
AccurateRip: сводка
Трек 1 : извлечено точно (доверие 10) [89DAA6F1] (AR v2)
Трек 2 : извлечено точно (доверие 10) [3FEDF51B] (AR v2)
Трек 3 : извлечено точно (доверие 10) [61F34552] (AR v2)
Трек 4 : извлечено точно (доверие 10) [C4372BD0] (AR v2)
Трек 5 : извлечено точно (доверие 10) [3E8A959B] (AR v2)
Трек 6 : извлечено точно (доверие 10) [61CD006D] (AR v2)
Трек 7 : извлечено точно (доверие 10) [A9AC6D61] (AR v2)
Трек 8 : извлечено точно (доверие 10) [1C54E0F4] (AR v2)
Трек 9 : извлечено точно (доверие 10) [104658AE] (AR v2)
Трек 10 : извлечено точно (доверие 10) [BD981968] (AR v2)
Трек 11 : извлечено точно (доверие 10) [5CE8469F] (AR v2)
Трек 12 : извлечено точно (доверие 10) [35733ACC] (AR v2)
Трек 13 : извлечено точно (доверие 10) [4E04206A] (AR v2)
Трек 14 : извлечено точно (доверие 10) [4C9156A3] (AR v2)
Трек 15 : извлечено точно (доверие 10) [0A1B9987] (AR v2)
Трек 16 : извлечено точно (доверие 10) [4C8F8CFA] (AR v2)
Трек 17 : извлечено точно (доверие 10) [4CE71627] (AR v2)
Трек 18 : извлечено точно (доверие 10) [A8C57B23] (AR v2)
Трек 19 : извлечено точно (доверие 10) [3CBCBAA9] (AR v2)
Все треки извлечены точно
Конец отчёта
==== Контрольная сумма отчёта AC5001DE06CD9E0CE11DC3EF02AF774BD4F8264D2B09D176F3204A0C89839E33 ====

CD4:Треклист:

Act 3
01. Vorspiel
02. Frau Sonne sendet lichte Strahlen
03. Ein Albe fuhrte mich irr
04. Noch bin ich beutellos
05. Behalt ihn, Held, und wahr ihn wohl
06. Ihr listigen Frauen, lasst das sein!
07. Kommt, Schwestern!
08. Hoiho!
09. Trink, Gunther, trink!
10. Mime hiess ein murrischer Zwerg
11. In Leid zu dem Wipfel lauscht' ich hinauf
12. Erratst Du auch dieser Raben Geraun?
13. Brunnhilde ! Heilige Braut !
14. Trauerzug
15. War das sein Horn?
16. Hoiho! Hoiho! Wacht auf!
17. Siegfried - Siegfried erschlagen!
18. Schweigt Eures Jammers jauchzenden Schwall
19. Starke Scheite schichtet mir dort am Rande des Rheins
20. O Ihr, der Erde ewiger Huter!
21. Mein Erbe nun nehm' ich zu eigen
22. Fliegt heim, ihr Raben!
23. Grane, mein Ross, sei mir gegrusst!
24. Zuruck vom Ring!
Total 76.56

Лог создания рипа:

Exact Audio Copy V1.0 beta 3 from 29. August 2011
Отчёт EAC об извлечении, выполненном 29. марта 2015, 11:54
Richard Wagner / Gotterdammerung - CD4
Дисковод: _NEC DVD_RW ND-3570A Adapter: 2 ID: 0
Режим чтения : Скоростной
Коррекция смещения при чтении : 48
Способность читать области Lead-in и Lead-out : Нет
Заполнение пропущенных сэмплов тишиной : Да
Удаление блоков с тишиной в начале и конце : Нет
При вычислениях CRC использовались нулевые сэмплы : Да
Интерфейс : Встроенный Win32-интерфейс для Win NT/2000
Выходной формат : Пользовательский кодировщик
Выбранный битрейт : 896 kBit/s
Качество : Высокий
Добавление ID3-тега : Нет
Утилита сжатия : C:\Program Files\FLAC Frontend\tools\flac.exe
Дополнительные параметры : -V -8 -T "Date=%year%" -T "Genre=%genre%" %source%
TOC извлечённого CD
Трек | Старт | Длительность | Начальный сектор | Конечный сектор
---------------------------------------------------------------------
1 | 0:00.00 | 2:45.32 | 0 | 12406
2 | 2:45.32 | 3:19.20 | 12407 | 27351
3 | 6:04.52 | 1:29.13 | 27352 | 34039
4 | 7:33.65 | 2:41.05 | 34040 | 46119
5 | 10:14.70 | 2:29.07 | 46120 | 57301
6 | 12:44.02 | 2:25.28 | 57302 | 68204
7 | 15:09.30 | 3:28.07 | 68205 | 83811
8 | 18:37.37 | 3:53.30 | 83812 | 101316
9 | 22:30.67 | 2:25.45 | 101317 | 112236
10 | 24:56.37 | 4:36.20 | 112237 | 132956
11 | 29:32.57 | 2:34.53 | 132957 | 144559
12 | 32:07.35 | 2:14.65 | 144560 | 154674
13 | 34:22.25 | 5:23.32 | 154675 | 178931
14 | 39:45.57 | 6:13.45 | 178932 | 206951
15 | 45:59.27 | 2:41.45 | 206952 | 219071
16 | 48:40.72 | 1:55.58 | 219072 | 227754
17 | 50:36.55 | 2:43.27 | 227755 | 240006
18 | 53:20.07 | 3:56.50 | 240007 | 257756
19 | 57:16.57 | 5:25.13 | 257757 | 282144
20 | 62:41.70 | 4:28.42 | 282145 | 302286
21 | 67:10.37 | 2:02.35 | 302287 | 311471
22 | 69:12.72 | 1:14.48 | 311472 | 317069
23 | 70:27.45 | 3:03.50 | 317070 | 330844
24 | 73:31.20 | 3:22.55 | 330845 | 346049
Характеристики диапазона извлечения и сообщения об ошибках
Выбранный диапазон
Имя файла N:\Wagner - Der Ring des Nibelungen - Barenboim\IV. Gotterdammerung\CD4\Richard Wagner - Gotterdammerung - CD4.wav
Пиковый уровень 81.2 %
Скорость извлечения 7.7 X
CRC теста F6B4F720
CRC копии F6B4F720
Копирование... OK
Ошибок не произошло
AccurateRip: сводка
Трек 1 : извлечено точно (доверие 10) [97731437] (AR v2)
Трек 2 : извлечено точно (доверие 10) [D7B5739A] (AR v2)
Трек 3 : извлечено точно (доверие 10) [1AA9C716] (AR v2)
Трек 4 : извлечено точно (доверие 10) [60FFE102] (AR v2)
Трек 5 : извлечено точно (доверие 10) [03BA48AD] (AR v2)
Трек 6 : извлечено точно (доверие 10) [9B8D8793] (AR v2)
Трек 7 : извлечено точно (доверие 10) [A293CD1F] (AR v2)
Трек 8 : извлечено точно (доверие 10) [BAB8B9FF] (AR v2)
Трек 9 : извлечено точно (доверие 10) [9F98A6C7] (AR v2)
Трек 10 : извлечено точно (доверие 10) [D10506A3] (AR v2)
Трек 11 : извлечено точно (доверие 10) [C0880B2F] (AR v2)
Трек 12 : извлечено точно (доверие 10) [229737AE] (AR v2)
Трек 13 : извлечено точно (доверие 10) [521DEAAE] (AR v2)
Трек 14 : извлечено точно (доверие 10) [28381F74] (AR v2)
Трек 15 : извлечено точно (доверие 10) [56020BF0] (AR v2)
Трек 16 : извлечено точно (доверие 10) [2EB25284] (AR v2)
Трек 17 : извлечено точно (доверие 10) [841FD4F7] (AR v2)
Трек 18 : извлечено точно (доверие 10) [5869A42B] (AR v2)
Трек 19 : извлечено точно (доверие 10) [28E316A4] (AR v2)
Трек 20 : извлечено точно (доверие 10) [3D397E61] (AR v2)
Трек 21 : извлечено точно (доверие 10) [659FE901] (AR v2)
Трек 22 : извлечено точно (доверие 10) [1C96374F] (AR v2)
Трек 23 : извлечено точно (доверие 10) [8EA12720] (AR v2)
Трек 24 : извлечено точно (доверие 10) [75E0332C] (AR v2)
Все треки извлечены точно
Конец отчёта
==== Контрольная сумма отчёта 6AB3FD925E26FDE9BD04ED2B72B920619CF0A253B53139074807DE095DCB6F3F ====

Исполнители:

Siegfried Jerusalem (Siegfried)
John Tomlinson (Wanderer)
Anne Evans (Brünnhilde)
Birgitta Svendén (Erste Norn)
Philip Kang (Hagen)
Linda Finnie (Zweite Norn)
Bodo Brinkmann (Gunther)
Uta Priew (Dritte Norn)
Eva-Maria Bundschuh (Gutrune)
Hilde Leidland (Woglinde)
Waltraud Meier (Waltraute)
Annette Küttenbaum (Wellgunde)
Günter von Kannen (Alberich)
Jane Turner (Floßhilde)
Bayreuth Festival Orchestra and Choir
Daniel Barenboim



Показать сообщения:    

Текущее время: 03-Дек 16:44

Часовой пояс: UTC + 3


Вы не можете начинать темы
Вы не можете отвечать на сообщения
Вы не можете редактировать свои сообщения
Вы не можете удалять свои сообщения
Вы не можете голосовать в опросах
Вы не можете прикреплять файлы к сообщениям
Вы не можете скачивать файлы