[TR24][OF] J.S. Bach - Goldberg Variations, BWV 988 (Transcription for Strings) arr. Dmitry Sitkovetsky / Дмитрий Ситковецкий (Britten Sinfonia, Thomas Gould) - 2015 (Classical)


Статистика раздачи [Обновить пиров]
Размер:  1.35 GB   |    Зарегистрирован:  8 месяцев 14 дней   |    Скачан:  0 раз

Полного источника не было: Никогда

 
   
 
 
 

[Цитировать]

J.S. Bach
Goldberg Variations (arr. Dmitry Sitkovetsky)
Britten Sinfonia · Thomas Gould
- Год издания: 2015
Жанр: Classical
Издатель (лейбл): Harmonia Mundi
Продолжительность: 01:12:51
Наличие сканов: Sleeve, Digital Booklet- -Контейнер: FLAC (*.flac)
Тип рипа: tracks
Разрядность: 24bit / 88.2kHz
Количество каналов: 2.0
-Johann Sebastian Bach (1685-1750)
Goldberg Variations, BWV 988 (Transcription for Strings)
arr. D. Sitkovetsky (b. 1954)

Britten Sinfonia
Thomas Gould violin/director (plays a 1782 J.B. Guadagnini violin)
Recorded: in April, 2014 at All Hallows’ Church, Gospel Oak, London
-

Треклист
Goldberg Variations, BWV 988 (Transcription for Strings)
01. Aria (3:34)
02. Variation 1 (1:52)
03. Variation 2 (1:24)
04. Variation 3, Canone all' Unisono (2:10)
05. Variation 4 (1:01)
06. Variation 5 (1:26)
07. Variation 6, Canone alla seconda (1:11)
08. Variation 7, al Tempo di Giga (2:19)
09. Variation 8 (1:52)
10. Variation 9, Canone alla Terza (1:28)
11. Variation 10, Fugetta (1:29)
12. Variation 11 (2:01)
13. Variation 12, Canone alla Quarta (1:54)
14. Variation 13 (3:42)
15. Variation 14 (2:07)
16. Variation 15, Canone alla Quinta (4:32)
17. Variation 16, Ouverture (2:54)
18. Variation 17 (2:07)
19. Variation 18, Canone alla sesta (1:25)
20. Variation 19 (1:57)
21. Variation 20 (2:05)
22. Variation 21, Canone alla settima (2:55)
23. Variation 22 (1:16)
24. Variation 23 (1:53)
25. Variation 24, Canone all' ottava (2:33)
26. Variation 25, Adagio (5:51)
27. Variation 26 (2:02)
28. Variation 27, Canone alla nona (1:58)
29. Variation 28 (2:10)
30. Variation 29 (2:11)
31. Variation 30, Quodlibet (1:39)
32. Aria (3:52)

О релизе

Johann Sebastian Bach (1685-1750) supposedly wrote his Goldberg Variations at the request of Hermann Carl von Keyserlingk who wanted some clavier pieces for his harpsichordist, Johann Gottlieb Goldberg. However, there is no evidence that this was the case, particularly given that Goldberg would only have been fourteen years of age when the variations were written. The indications are that the Goldberg Variations were intended to be an integral part of Bach’s Clavier-Übung series to which they bring an impressive finale.
The debate over whether these variations should be performed only on a harpsichord or whether a modern piano is suitable pall into insignificance when confronted with a modern arrangement for small string orchestra.
Gapplegate Classical-Modern Music Review
Johann Sebastian Bach's Goldberg Variations, originally meant for solo harpsichord, is surely one of the sublime moments of the baroque era, a set of variations that never ceases to yield up precious riches on every hearing. Dmitry Sitkovetsky's arrangement for string orchestra gives us a version that opens up the shifting moods and the contrapuntal genius of the set in ways that bring the music to us in even more depth. The Britten Sinfonia under Thomas Gould has recently recorded a cornerstone rendition of the arrangement (Harmonia Mundi 807633).
What's remarkable about the Sitkovetsky scoring and the Britten Sinfonia's performance is the vast timbral resources of the string orchestra and how it is put to use. The contrapuntal lines are all there to be heard as Bach worked them out with his architectonic genius. But the instrumentation changes for every variation, in both combinations of players and string articulation. Gould and the Sinfonia give us the detailed reading and heartfelt brio that is exhilaratingly true to the arrangement in the best ways. The tempos seem totally right for each variation and the three-dimensional qualities of the string sonance come at you stunningly in this beautiful sounding recording.
An arrangement like this demands a very sensitive collective instrument to succeed fully. Gould and the Sinfonia give us that. They come through with stirring realizations that put your ears in overdrive throughout.
I cannot imagine a better performance and the string arrangement is wonderfully definitive. This is music that puts you in a super-human world and keeps you there throughout the duration.
Strongly recommended!

ОтчётыДинамический диапазон

foobar2000 1.2.2 / Dynamic Range Meter 1.1.1
log date: 2015-04-03 19:31:38
--------------------------------------------------------------------------------
Analyzed: Britten Sinfonia, Thomas Gould / Bach, Sitkovetsky: Goldberg Variations
--------------------------------------------------------------------------------
DR Peak RMS Duration Track
--------------------------------------------------------------------------------
DR13 -7.29 dB -25.53 dB 3:34 ?-Aria
DR13 -1.78 dB -19.40 dB 1:52 ?-Variation 1
DR13 -4.65 dB -22.07 dB 1:24 ?-Variation 2
DR12 -8.21 dB -23.97 dB 2:10 ?-Variation 3, Canone all' Unisono
DR12 -2.72 dB -18.29 dB 1:01 ?-Variation 4
DR15 -6.25 dB -23.27 dB 1:26 ?-Variation 5
DR12 -7.53 dB -23.36 dB 1:11 ?-Variation 6, Canone alla seconda
DR12 -7.84 dB -24.13 dB 2:19 ?-Variation 7, al Tempo di Giga
DR13 -1.22 dB -20.08 dB 1:52 ?-Variation 8
DR12 -6.78 dB -22.09 dB 1:28 ?-Variation 9, Canone alla Terza
DR12 -3.37 dB -18.62 dB 1:29 ?-Variation 10, Fugetta
DR13 -6.18 dB -23.18 dB 2:01 ?-Variation 11
DR12 -4.53 dB -20.86 dB 1:54 ?-Variation 12, Canone alla Quarta
DR13 -7.97 dB -26.13 dB 3:42 ?-Variation 13
DR14 -6.13 dB -23.54 dB 2:07 ?-Variation 14
DR13 -4.15 dB -24.18 dB 4:32 ?-Variation 15, Canone alla Quinta
DR12 -3.34 dB -18.92 dB 2:54 ?-Variation 16, Ouverture
DR14 -6.54 dB -24.04 dB 2:07 ?-Variation 17
DR12 -8.44 dB -26.73 dB 1:25 ?-Variation 18, Canone alla sesta
DR13 -14.63 dB -31.21 dB 1:57 ?-Variation 19
DR14 -2.22 dB -21.13 dB 2:05 ?-Variation 20
DR12 -5.87 dB -21.47 dB 2:55 ?-Variation 21, Canone alla settima
DR11 -0.75 dB -16.42 dB 1:16 ?-Variation 22
DR13 -4.75 dB -21.82 dB 1:53 ?-Variation 23
DR13 -5.05 dB -21.33 dB 2:33 ?-Variation 24, Canone all' ottava
DR13 -8.83 dB -27.19 dB 5:51 ?-Variation 25, Adagio
DR14 -2.39 dB -20.50 dB 2:02 ?-Variation 26
DR13 -4.44 dB -24.35 dB 1:58 ?-Variation 27, Canone alla nona
DR15 -6.84 dB -25.19 dB 2:10 ?-Variation 28
DR13 -3.32 dB -20.18 dB 2:11 ?-Variation 29
DR12 -0.27 dB -14.65 dB 1:39 ?-Variation 30, Quodlibet
DR13 -7.85 dB -26.92 dB 3:52 ?-Aria
--------------------------------------------------------------------------------
Number of tracks: 32
Official DR value: DR13
Samplerate: 88200 Hz
Channels: 2
Bits per sample: 24
Bitrate: 2540 kbps
Codec: FLAC
================================================================================

Скриншот спектра частот

Доп. информация

При скачивании, если необходимо, переименуйте папку, в которой будет находиться альбомБольшая просьба к скачавшим поддерживать раздачу! Помогайте другим, ведь вам тоже может понадобиться помощь!Не забываем говорить "Спасибо"!Комментарии приветствуются!
[teatrix.ru].t20839.torrent 
Торрент: Зарегистрирован [ 2016-03-20 00:47 ] · E75C64830A0236351E1A641B67944A6E49F4357F

Скачать .torrent

Скачать

17 KB

Статус: проверено
Скачан: 0 раз
Размер: 1.35 GB
terms.php



Быстрый ответ

Имя:

      
Для отправки сообщений необходимо включить JavaScript
Показать сообщения:    

Текущее время: 03-Дек 20:46

Часовой пояс: UTC + 3


Вы можете начинать темы
Вы можете отвечать на сообщения
Вы не можете редактировать свои сообщения
Вы не можете удалять свои сообщения
Вы не можете голосовать в опросах
Вы не можете прикреплять файлы к сообщениям
Вы можете скачивать файлы