Избранное. Из архива Программы "А" (Сергей Антипов) [2015, музыка, документальный, DVB]


Статистика раздачи [Обновить пиров]
Размер:  2.16 GB   |    Зарегистрирован:  8 месяцев 17 дней   |    Скачан:  0 раз

Полного источника не было: Никогда

 
   
 
 
 

[Цитировать]

Избранное. Из архива Программы "А"
Дата/Год выпуска: 2015
Страна: Россия
Жанр: музыка, документальный
Продолжительность: 51:00
Режиссер: Сергей Антипов
Описание: Передача посвящена циклу программ под общим названием "Программа "А", который выходил в эфир с 1989 по 2000 годы.
Ее бессменным режиссером и ведущим был Сергей Антипов (1959-2015). Передача "Избранное. Из архива Программы "А" строится как чередование наиболее ярких эпизодов из архивов Программы "А" и интервью с популярными рок-музыкантами и известными деятелями музыкального искусства. Среди собеседников - А. Скляр, И. Сукачев, А. Макаревич, Е. Маргулис, Ю. Шевчук, П. Мамонов, В. Шахрин, А. Григорян, О. Арефьева, Н. Полева, О. Гаркуша и многие другие известные российские рок-музыканты.
В программе фигурируют отрывки из концертов групп "Бригада С", "ДДТ", "Мамонов и Алексей", "Ва Банкъ", "Машина времени", "Чайф", "Агата Кристи", "АУ" и ряда других, снятых в 1990-е годы. Сергей Антипов в начале, середине и в конце программы дает краткие пояснения, касающиеся главных принципов работы программы.
Доп. информация:

СОЗДАТЕЛЮ ЛЕГЕНДАРНОЙ ПРОГРАММЫ "А" СЕРГЕЮ АНТИПОВУ ПОСВЯЩАЕТСЯ...

1 февраля 2015 года ушел из жизни создатель и ведущий музыкальной Программы "А" Сергей Антипов.
Сергей Антипов – российский телережиссер и ведущий – начал свою телевизионную карьеру в 1983 году в Главной редакции музыкальных программ Центрального телевидения, работая на съемках "Утренней почты", праздничных "Огоньков". В 1989 году вместе с Григорием Шестаковым, Ниной Соловьян, Еленой Карповой и Артемием Троицким создал Программу "А", где был бессменным ведущим в течение более 10 лет. Программа "А", специализирующаяся на необычных и перспективных музыкальных явлениях, альтернативной и некоммерческой музыке, русском роке, была необычайно популярна в середине 1990-х годов. По выражению журналистов, это был оплот и бункер рок-поколения на Центральном телевидении. За время ее существования в гостях у Сергея Антипова побывали практически все известные отечественные рок-музыканты. "Все меня считают каким-то телевизионным неформалом, чуть ли не нон-конформистом, – признавался Антипов в одном из интервью. – А я государственник – я хочу, чтобы в моей стране было хорошее телевидение без халтуры, хорошая музыка без фонограммы и, как следствие, хорошие телезрители".
Кроме того, Антипов со своей командой занимался организацией и прямыми трансляциями церемоний вручения премий "ТЭФИ", "Ника", фестивалей "Кинотавр", "Славянский базар", конкурса "Евровидение". Был режиссером трансляций концертов Тины Тернер, Дэвида Боуи, Стинга, Патрисии Каас и многих других зарубежных звезд.
"Он стремился, чтобы зрителю смотреть его программы было, с одной стороны, интересно и полезно, а с другой – чтобы его познавательному восприятию ничто не мешало, – вспоминает журналист Григорий Шестаков. – И никаких современных коммерческих манипуляций, свойственных современному ТВ. Он был просветителем в самом высоком смысле слова".
В 2000 году Программа "А" была закрыта, но сталась ТВ группа "А", которая продолжила заниматься проведением трансляций музыкальных фестивалей, общественно-политических телемарафонов и международных телемостов, созданием специальных проектов по заказу различных телеканалов. Для канала "Россия К" ТВ группа "A" готовила телепрограммы "Азбука", "Джазофрения", "Под гитару", трансляции Дней славянской письменности и культуры и цикла концертов "Булату Окуджаве посвящается… Переделкино".
качество: DVB
формат: MPG
Видео кодек: MPEG2
Видео: MPEG2 Video 720x576 (4:3) 5 737 Kbps, 25fps
Аудио: MPEG Audio 192kbps 48000Hz stereo, 2 ch

MediaInfo

Format                                   : MPEG-PS
File size : 2.16 GiB
Duration : 51mn 0s
Overall bit rate mode : Variable
Overall bit rate : 6 049 Kbps
Video
ID : 224 (0xE0)
Format : MPEG Video
Format version : Version 2
Format profile : Main@Main
Format settings, BVOP : Yes
Format settings, Matrix : Custom
Duration : 51mn 0s
Bit rate mode : Variable
Bit rate : 5 737 Kbps
Maximum bit rate : 15.0 Mbps
Width : 720 pixels
Height : 576 pixels
Display aspect ratio : 4:3
Frame rate : 25.000 fps
Standard : PAL
Color space : YUV
Chroma subsampling : 4:2:0
Bit depth : 8 bits
Scan type : Interlaced
Scan order : Top Field First
Compression mode : Lossy
Bits/(Pixel*Frame) : 0.553
Stream size : 2.04 GiB (95%)
Audio
ID : 192 (0xC0)
Format : MPEG Audio
Format version : Version 1
Format profile : Layer 2
Duration : 51mn 0s
Bit rate mode : Constant
Bit rate : 192 Kbps
Channel count : 2 channels
Sampling rate : 48.0 KHz
Compression mode : Lossy
Delay relative to video : -216ms
Stream size : 70.0 MiB (3%)
[teatrix.ru].t20846.torrent 
Торрент: Зарегистрирован [ 2016-03-20 00:51 ] · 4265EA5D89718CBB5E462572FFF2299963BE2908

Скачать .torrent

Скачать

11 KB

Статус: проверено
Скачан: 0 раз
Размер: 2.16 GB
terms.php



Быстрый ответ

Имя:

      
Для отправки сообщений необходимо включить JavaScript
Показать сообщения:    

Текущее время: 06-Дек 15:06

Часовой пояс: UTC + 3


Вы можете начинать темы
Вы можете отвечать на сообщения
Вы не можете редактировать свои сообщения
Вы не можете удалять свои сообщения
Вы не можете голосовать в опросах
Вы не можете прикреплять файлы к сообщениям
Вы можете скачивать файлы