Хрустальное сердце (Михаил Фалкин) [1987, Сказка, WEB-DLRip]


 

[Цитировать]

Хрустальное сердце
Жанр: Сказка
Год выпуска: 1987
Продолжительность: 00:47:13
Режиссёр: Михаил Фалкин
В ролях: Артур Ваха, Ирина Мазуркевич, Ирина Замотина, Валерий Караваев, Александр Шевелев, Валентина Кособуцкая, Лариса Леонова, Виктор Костецкий, Владимир Рожин
Описание: Телеспектакль по мотивам сказок В.Гауфа
Семпл: https://yadi.sk/i/whksmD9GfmfYe
Качество видео: WEB-DLRip
Формат видео: AVI
Видео: Xvid 704x544 25fps 1499kbps
Аудио: MP3 48000Hz stereo 111kbps

MediaInfo

General
Complete name : C:\Users\VesnaWindows\Desktop\Хрустальное сердце .avi
Format : AVI
Format/Info : Audio Video Interleave
File size : 548 MiB
Duration : 47mn 13s
Overall bit rate mode : Variable
Overall bit rate : 1 623 Kbps
Writing library : VirtualDub build 35491/release
Video
ID : 0
Format : MPEG-4 Visual
Format profile : Advanced Simple@L5
Format settings, BVOP : 1
Format settings, QPel : No
Format settings, GMC : No warppoints
Format settings, Matrix : Default (H.263)
Muxing mode : Packed bitstream
Codec ID : XVID
Codec ID/Hint : XviD
Duration : 47mn 13s
Bit rate : 1 499 Kbps
Width : 704 pixels
Height : 544 pixels
Display aspect ratio : 1.294
Frame rate : 25.000 fps
Color space : YUV
Chroma subsampling : 4:2:0
Bit depth : 8 bits
Scan type : Progressive
Compression mode : Lossy
Bits/(Pixel*Frame) : 0.157
Stream size : 506 MiB (92%)
Writing library : XviD 1.2.1 (UTC 2008-12-04)
Audio
ID : 1
Format : MPEG Audio
Format version : Version 1
Format profile : Layer 3
Mode : Joint stereo
Mode extension : MS Stereo
Codec ID : 55
Codec ID/Hint : MP3
Duration : 47mn 13s
Bit rate mode : Variable
Bit rate : 111 Kbps
Nominal bit rate : 128 Kbps
Channel(s) : 2 channels
Sampling rate : 48.0 KHz
Compression mode : Lossy
Stream size : 37.5 MiB (7%)
Alignment : Aligned on interleaves
Interleave, duration : 24 ms (0.60 video frame)
Interleave, preload duration : 525 ms
Writing library : LAME3.99r
Encoding settings : -m j -V 4 -q 2 -lowpass 17 --abr 128

Скриншот с названием постановки

Скриншоты




Показать сообщения:    

Текущее время: 08-Дек 21:07

Часовой пояс: UTC + 3


Вы не можете начинать темы
Вы не можете отвечать на сообщения
Вы не можете редактировать свои сообщения
Вы не можете удалять свои сообщения
Вы не можете голосовать в опросах
Вы не можете прикреплять файлы к сообщениям
Вы не можете скачивать файлы