[TR24][OF] J.S. Bach - Imagine (Jean Rondeau) - 2015 (Classical, Harpsichord)


Статистика раздачи [Обновить пиров]
Размер:  1.65 GB   |    Зарегистрирован:  8 месяцев 13 дней   |    Скачан:  1 раз

Полного источника не было: 20 дней

 
   
 
 
 

[Цитировать]

J.S. Bach
Imagine
Jean Rondeau
- Год издания: 2015
Жанр: Classical, Harpsichord
Издатель (лейбл): Erato | Warner Classics
Продолжительность: 01:24:35
Наличие сканов: Sleeve, Digital Booklet
- -
Johann Sebastian Bach (1685-1750)
Lute Suite No. 2 in C Minor, BWV 997 (arr. Jean Rondeau)
01. I. Prelude (4:20)
02. II. Fuga (4:47)
03. III. Sarabande (4:35)
04. IV. Gigue - Double (2:37)
Violin Sonata No. 2 in A Minor, BWV 1003 (arr. W. F. Bach)
05. I. Grave (3:27)
06. II. Fuga (6:44)
07. III. Andante (3:47)
08. IV. Allegro (3:36)
Violin Partita No. 2 in D Minor, BWV 1004 (arr. J. Brahms)
09. V. Chaconne (11:48)
Flute Partita in A Minor, BWV 1013 (arr. Stéphane Delplace)
10. I. Allemande (4:38)
11. II. Corrente (3:51)
12. III. Sarabande (4:35)
13. IV. Bourrée Angloise (2:53)
Italian Concerto in F Major, BWV 971
14. I. Allegro (3:58)
15. II. Andante (5:13)
16. III. Allegro Vivace (4:29)
Violin Sonata in C Major, BWV 1005 (arr. W. F. Bach)
17. I. Adagio (4:41)
Cello Suite No. 1 in G Major, BWV 1007 (arr. Jean Rondeau)
18. V. Menuets I & II (4:35)

-
Jean Rondeau, harpsichord
Recorded: Notre-Dame du Bon Secours, Paris. 2 – 6. VI. 2014

-
Контейнер: FLAC (*.flac)
Тип рипа: tracks
Разрядность: 24bit / 96kHz
Количество каналов: 2.0
-О релизе
IMAGINE is the first Warner Classics release from the dynamic young French harpsichordist Jean Rondeau, who sees it as “an exploration of all the possibilities that lie in the music of Johann Sebastian Bach and in the harpsichord”. Praised by radio station France Musique for his “maturity, fabulous touch and originality,” the multi-talented Rondeau feels that, as a young musician today, he has “an incredible opportunity to break out of the concert hall and meet the world”.
IMAGINE features one of Bach’s most celebrated harpsichord works, the Italian Concerto BWV 971, but it mainly comprises transcriptions of music that the composer conceived for other instruments: the violin, the lute and the flute, including the towering Chaconne in D Minor. “This isn’t a disc of transcriptions, though,” says Rondeau. “As its name suggests, it is about imagination – an exploration of all the possibilities that lie in the music of Johann Sebastian Bach and in the harpsichord. And though it’s not making a direct link to John Lennon, it’s nice if the title of the CD calls him to mind.”
The fashionable French harpsichordist Jean Rondeau, who has studied jazz as well as classical music, here offers a Bach recital that's something of a mixed bag. Only two of the pieces, the Italian Concerto, BWV 971, and the Suite in C minor, BWV 997, appear in their original forms; the rest are transcriptions, and one, Johannes Brahms' one-hand piano version of the Chaconne from the Partita in D minor for solo violin, BWV 1004, is a daring choice on the harpsichord. In that work there are perhaps hints of Rondeau's jazz training, and the implacable build of the variations is perhaps lost. Rondeau's name surely brings to mind the French Baroque, and his opening movements, with ornaments powerful and glittering, suggest Couperin. He has a lot of power and drive, and he brings out the antiphonal structure of the Italian Concerto, significantly the only work on the program not in the French style, clearly and brilliantly. The result is an exciting program, even if one that's a bit unorthodox, and Rondeau is clearly a talent whose future directions and harnessing will be fascinating to watch. His power and intensity can speak for themselves and did not need help from the engineers, who produce a rather harsh sound from the old Notre-Dame du Bon Secours hospital in Paris. --James Manheim

ОтчётыДинамический диапазон

foobar2000 1.2.2 / Dynamic Range Meter 1.1.1
log date: 2015-04-05 18:06:02
--------------------------------------------------------------------------------
Analyzed: Jean Rondeau / Bach: Imagine
--------------------------------------------------------------------------------
DR Peak RMS Duration Track
--------------------------------------------------------------------------------
DR11 -8.19 dB -21.28 dB 4:20 ?-Lute Suite No. 2 in C Minor, BWV 997 (arr. Jean Rondeau): I. Prelude
DR12 -5.03 dB -18.68 dB 4:47 ?-Lute Suite No. 2 in C Minor, BWV 997 (arr. Jean Rondeau): II. Fuga
DR12 -7.41 dB -21.66 dB 4:35 ?-Lute Suite No. 2 in C Minor, BWV 997 (arr. Jean Rondeau): III. Sarabande
DR12 -4.53 dB -19.21 dB 2:37 ?-Lute Suite No. 2 in C Minor, BWV 997 (arr. Jean Rondeau): IV. Gigue - Double
DR13 -5.44 dB -20.84 dB 3:27 ?-Violin Sonata No. 2 in A Minor, BWV 1003 (arr. W. F. Bach): I. Grave
DR13 -4.16 dB -18.35 dB 6:44 ?-Violin Sonata No. 2 in A Minor, BWV 1003 (arr. W. F. Bach): II. Fuga
DR12 -5.12 dB -19.75 dB 3:47 ?-Violin Sonata No. 2 in A Minor, BWV 1003 (arr. W. F. Bach): III. Andante
DR12 -7.56 dB -21.68 dB 3:36 ?-Violin Sonata No. 2 in A Minor, BWV 1003 (arr. W. F. Bach): IV. Allegro
DR13 -3.64 dB -19.30 dB 11:48 ?-Violin Partita No. 2 in D Minor, BWV 1004 (arr. J. Brahms): V. Chaconne
DR12 -6.86 dB -20.13 dB 4:38 ?-Flute Partita in A Minor, BWV 1013 (arr. Stéphane Delplace): I. Allemande
DR12 -5.57 dB -18.70 dB 3:51 ?-Flute Partita in A Minor, BWV 1013 (arr. Stéphane Delplace): II. Corrente
DR12 -8.21 dB -21.91 dB 4:35 ?-Flute Partita in A Minor, BWV 1013 (arr. Stéphane Delplace): III. Sarabande
DR13 -3.64 dB -18.68 dB 2:53 ?-Flute Partita in A Minor, BWV 1013 (arr. Stéphane Delplace): IV. Bourrée Angloise
DR12 -2.73 dB -18.73 dB 3:58 ?-Italian Concerto in F Major, BWV 971: I. Allegro
DR12 -7.14 dB -23.04 dB 5:13 ?-Italian Concerto in F Major, BWV 971: II. Andante
DR13 -3.87 dB -19.33 dB 4:29 ?-Italian Concerto in F Major, BWV 971: III. Allegro Vivace
DR14 -2.93 dB -19.30 dB 4:41 ?-Violin Sonata in C Major, BWV 1005 (arr. W. F. Bach): I. Adagio
DR12 -7.64 dB -21.62 dB 4:35 ?-Cello Suite No. 1 in G Major, BWV 1007 (arr. Jean Rondeau): V. Menuets I & II
--------------------------------------------------------------------------------
Number of tracks: 18
Official DR value: DR12
Samplerate: 96000 Hz
Channels: 2
Bits per sample: 24
Bitrate: 2681 kbps
Codec: FLAC
================================================================================

Скриншот спектра частот

Доп. информация

При скачивании, если необходимо, переименуйте папку, в которой будет находиться альбомБольшая просьба к скачавшим поддерживать раздачу! Помогайте другим, ведь вам тоже может понадобиться помощь!Не забываем говорить "Спасибо"!Комментарии приветствуются!
[teatrix.ru].t20850.torrent 
Торрент: Зарегистрирован [ 2016-03-20 00:51 ] · 7C10DC3F282995665086A2C28BD90E3BA8DC2C8B

Скачать .torrent

Скачать

19 KB

Статус: проверено
Скачан: 1 раз
Размер: 1.65 GB
terms.php



Быстрый ответ

Имя:

      
Для отправки сообщений необходимо включить JavaScript
Показать сообщения:    

Текущее время: 02-Дек 21:12

Часовой пояс: UTC + 3


Вы можете начинать темы
Вы можете отвечать на сообщения
Вы не можете редактировать свои сообщения
Вы не можете удалять свои сообщения
Вы не можете голосовать в опросах
Вы не можете прикреплять файлы к сообщениям
Вы можете скачивать файлы