Ангелина Вовк. Женщина, которая ведет (Расим Полоскин) [2012, Личности и кумиры, DVB]


Статистика раздачи [Обновить пиров]
Размер:  937 MB   |    Зарегистрирован:  8 месяцев 20 дней   |    Скачан:  0 раз

Полного источника не было: Никогда

 
   
 
 
 

[Цитировать]

Ангелина Вовк. Женщина, которая ведет
Дата/Год выпуска: 2012
Страна: Россия
Жанр: Личности и кумиры
Продолжительность: 00:51:52
Перевод: Не требуется
Студия "Красный Квадрат"
Русские субтитры: нет
Режиссер: Расим Полоскин
Телеканал: Ретро
Описание:
Для многих поколений телезрителей она так и останется доброй тётей Линой из "Спокойной ночи, малыши" и обаятельной ведущей "Песни года". 16 сентября 2012 года отметила свой юбилей народная артистка России Ангелина Вовк. В фильме, посвященном ей, рассказывается, с чего начиналось советское ТВ, как оно эволюционировало, и что представляет собой современная "телекухня".Ангелина Вовк расскажет о работе, о жизни, о себе.
Доп. информация: В фильме участвуют: Игорь Кириллов, Анна Шатилова, Иосиф Кобзон, Евгений Меньшов, Николай Дроздов, Александр Олешко, Леонид Якубович, Александр Масляков, Юрий Николаев.
Сэмпл: https://www.sendspace.com/file/qu8485
качество: DVB
формат: MPG
Видео: MPEG2 720:576 4:3 2283 Кбит/сек 25,000 кадров/сек
Аудио: MPEG Audio 192 Кбит/сек 48,0 КГц 2 канала

MediaInfo

Общее
Полное имя : Женщина, которая ведет .mpg
Формат : MPEG-PS
Размер файла : 937 Мбайт
Продолжительность : 51 м.
Режим общего битрейта : Переменный
Общий поток : 2525 Кбит/сек
Видео
Идентификатор : 224 (0xE0)
Формат : MPEG Video
Версия формата : Version 2
Профиль формата : Main@Main
Параметр BVOP формата : Да
Параметр матрицы формата : Выборочная
Параметр GOP формата : M=3, N=12
Продолжительность : 51 м.
Вид битрейта : Переменный
Битрейт : 2283 Кбит/сек
Максимальный битрейт : 10000 Кбит/сек
Ширина : 720 пикселей
Высота : 576 пикселей
Соотношение сторон : 4:3
Частота кадров : 25,000 кадров/сек
Стандарт вещания : PAL
Цветовое пространство : YUV
Субдискретизация насыщенности : 4:2:0
Битовая глубина : 8 бит
Тип развёртки : Чересстрочная
Порядок развёртки : Верхнее поле первое
Метод сжатия : С потерями
Бит/(Пиксели*Кадры) : 0.220
Временной код первого кадра : 00:00:00:00
Оригинал временного кода : Group of pictures header
Размер потока : 847 Мбайт (90%)
Аудио
Идентификатор : 192 (0xC0)
Формат : MPEG Audio
Версия формата : Version 1
Профиль формата : Layer 2
Продолжительность : 51 м.
Вид битрейта : Постоянный
Битрейт : 192 Кбит/сек
Каналы : 2 канала
Частота : 48,0 КГц
Метод сжатия : С потерями
Задержка видео : 11 мс.
Размер потока : 71,3 Мбайт (8%)

Скриншоты

Запись потока *.ts произведена тюнером цифрового телевидения. В связи с тем, что не все плееры воспроизводят поток *.ts (MPEG-TS) , в данном видеофайле мной был сделан ремукс потока *.ts (MPEG-TS) в *.mpg (MPEG-PS) программой VideoReDo.
[teatrix.ru].t20852.torrent 
Торрент: Зарегистрирован [ 2016-03-20 00:51 ] · 66F35A562F12DDC0E3D6FE41D1BB39D7B3711F50

Скачать .torrent

Скачать

19 KB

Статус: проверено
Скачан: 0 раз
Размер: 937 MB
terms.php



Быстрый ответ

Имя:

      
Для отправки сообщений необходимо включить JavaScript
Показать сообщения:    

Текущее время: 09-Дек 10:51

Часовой пояс: UTC + 3


Вы можете начинать темы
Вы можете отвечать на сообщения
Вы не можете редактировать свои сообщения
Вы не можете удалять свои сообщения
Вы не можете голосовать в опросах
Вы не можете прикреплять файлы к сообщениям
Вы можете скачивать файлы