(Opera) Wagner - Gotterdammerung (Andersen, Kannen, Watson, Bork, Rydl, Svenden, Schuster, Vilsmaier, Nederlands Philarmonisch Orkest, Koor van De Nederlandse Opera, Winfried Maczewski, Hartmut Haenchen) - 2006, FLAC (image+.cue), lossless


 

[Цитировать]

Wagner - Götterdämmerung - Haenchen
Жанр: Opera
Страна-производитель диска: Austria
Год издания диска: 2006
Издатель (лейбл): Et'cetera
Номер по каталогу: KTC 5503
Дата записи: 02&09/2005
Аудиокодек: FLAC
Тип рипа: image+.cue
Битрейт аудио: lossless
Продолжительность: 69.58 + 39.33 + 61.38 + 73.59
Источник: собственный рип
Наличие сканов в содержимом раздачи: да

CD1:Треклист:

01. Vorspiel
02. Welch Licht leuchtet dort ?
03. Zu neuen Taten, teurer Helde
04. Lass' ich Liebste, dich hier
05. Siegfrieds Rheinfahrt
Act I
Scene 1
06. Nun hor, Hagen; sage mir, Held
07. Vom Rhein her tont das Horn
Scene 2
08. Heil! Heil! Siegfried, tuerer Held!
09. Willkommen, Gast, in Gibich's Haus!
10. Gutrune
11. Bluhenden Lebens labendes Blut
12. Was nahmst du am Eide nicht teil?
13. Hier sitz' ich zur Wacht, wahre den Hof
Total 69.58

Лог создания рипа:

Exact Audio Copy V1.0 beta 3 from 29. August 2011
Отчёт EAC об извлечении, выполненном 5. апреля 2015, 11:54
Richard Wagner / Gotterdammerung - CD1
Дисковод: _NEC DVD_RW ND-3570A Adapter: 2 ID: 0
Режим чтения : Скоростной
Коррекция смещения при чтении : 48
Способность читать области Lead-in и Lead-out : Нет
Заполнение пропущенных сэмплов тишиной : Да
Удаление блоков с тишиной в начале и конце : Нет
При вычислениях CRC использовались нулевые сэмплы : Да
Интерфейс : Встроенный Win32-интерфейс для Win NT/2000
Выходной формат : Пользовательский кодировщик
Выбранный битрейт : 896 kBit/s
Качество : Высокий
Добавление ID3-тега : Нет
Утилита сжатия : C:\Program Files\FLAC Frontend\tools\flac.exe
Дополнительные параметры : -V -8 -T "Date=%year%" -T "Genre=%genre%" %source%
TOC извлечённого CD
Трек | Старт | Длительность | Начальный сектор | Конечный сектор
---------------------------------------------------------------------
1 | 0:00.00 | 2:01.39 | 0 | 9113
2 | 2:01.39 | 15:46.01 | 9114 | 80064
3 | 17:47.40 | 6:54.17 | 80065 | 111131
4 | 24:41.57 | 6:21.41 | 111132 | 139747
5 | 31:03.23 | 5:13.18 | 139748 | 163240
6 | 36:16.41 | 8:54.52 | 163241 | 203342
7 | 45:11.18 | 2:20.69 | 203343 | 213911
8 | 47:32.12 | 6:03.02 | 213912 | 241138
9 | 53:35.14 | 2:27.48 | 241139 | 252211
10 | 56:02.62 | 4:33.56 | 252212 | 272742
11 | 60:36.43 | 2:07.55 | 272743 | 282322
12 | 62:44.23 | 3:15.43 | 282323 | 296990
13 | 65:59.66 | 3:57.65 | 296991 | 314830
Характеристики диапазона извлечения и сообщения об ошибках
Выбранный диапазон
Имя файла N:\Wagner - Gotterdammerung - Haenchen\CD1\Richard Wagner - Gotterdammerung - CD1.wav
Проблемы синхронизации 0:07:09
Пиковый уровень 83.7 %
Скорость извлечения 15.0 X
CRC теста 93B0CD70
CRC копии 93B0CD70
Копирование завершено
Ошибок не произошло
AccurateRip: сводка
Трек 1 : извлечено точно (доверие 5) [E57D7FC5] (AR v2)
Трек 2 : извлечено точно (доверие 5) [0E4EF7C8] (AR v2)
Трек 3 : извлечено точно (доверие 5) [9975CFB0] (AR v2)
Трек 4 : извлечено точно (доверие 5) [05A6DFFE] (AR v2)
Трек 5 : извлечено точно (доверие 5) [50AC9CBA] (AR v2)
Трек 6 : извлечено точно (доверие 5) [2F6DEB4C] (AR v2)
Трек 7 : извлечено точно (доверие 5) [EFA9BC63] (AR v2)
Трек 8 : извлечено точно (доверие 5) [79FA3456] (AR v2)
Трек 9 : извлечено точно (доверие 5) [869F54E7] (AR v2)
Трек 10 : извлечено точно (доверие 5) [44E74DFF] (AR v2)
Трек 11 : извлечено точно (доверие 5) [A0484075] (AR v2)
Трек 12 : извлечено точно (доверие 5) [2ABA5E10] (AR v2)
Трек 13 : извлечено точно (доверие 5) [EB9AA05D] (AR v2)
Все треки извлечены точно
Конец отчёта
==== Контрольная сумма отчёта 2EA97F5943A5C90BFEDA4FE3AED8AE9BD74564589211EEB311CE2DC118A2211B ====

CD2:Треклист:

01. Zwischenspiel
Scene 3
02. Altgewohntes Gerausch
03. Hore mit Sinn, was ich dir sage!
04. Welch' banger Traume Maren
05. Blitzend Gewolk
06. Brunnhild'! Ein Freier kam
Total 39.33

Лог создания рипа:

Exact Audio Copy V1.0 beta 3 from 29. August 2011
Отчёт EAC об извлечении, выполненном 5. апреля 2015, 12:17
Richard Wagner / Gotterdammerung - CD2
Дисковод: _NEC DVD_RW ND-3570A Adapter: 2 ID: 0
Режим чтения : Скоростной
Коррекция смещения при чтении : 48
Способность читать области Lead-in и Lead-out : Нет
Заполнение пропущенных сэмплов тишиной : Да
Удаление блоков с тишиной в начале и конце : Нет
При вычислениях CRC использовались нулевые сэмплы : Да
Интерфейс : Встроенный Win32-интерфейс для Win NT/2000
Выходной формат : Пользовательский кодировщик
Выбранный битрейт : 896 kBit/s
Качество : Высокий
Добавление ID3-тега : Нет
Утилита сжатия : C:\Program Files\FLAC Frontend\tools\flac.exe
Дополнительные параметры : -V -8 -T "Date=%year%" -T "Genre=%genre%" %source%
TOC извлечённого CD
Трек | Старт | Длительность | Начальный сектор | Конечный сектор
---------------------------------------------------------------------
1 | 0:00.00 | 4:58.08 | 0 | 22357
2 | 4:58.08 | 7:48.52 | 22358 | 57509
3 | 12:46.60 | 9:16.71 | 57510 | 99280
4 | 22:03.56 | 6:01.04 | 99281 | 126359
5 | 28:04.60 | 3:08.53 | 126360 | 140512
6 | 31:13.38 | 8:19.35 | 140513 | 177972
Характеристики диапазона извлечения и сообщения об ошибках
Выбранный диапазон
Имя файла N:\Wagner - Gotterdammerung - Haenchen\CD2\Richard Wagner - Gotterdammerung - CD2.wav
Пиковый уровень 83.6 %
Скорость извлечения 13.0 X
CRC теста 16A9FB51
CRC копии 6B815A45
Копирование... OK
Ошибок не произошло
AccurateRip: сводка
Трек 1 : извлечено точно (доверие 5) [3E221AA5] (AR v2)
Трек 2 : извлечено точно (доверие 5) [A732570F] (AR v2)
Трек 3 : извлечено точно (доверие 5) [7A1F7774] (AR v2)
Трек 4 точность не определена (достоверность 5) [2AAECFEA], AccurateRip вернул [3618B6DF] (AR v2)
Трек 5 : извлечено точно (доверие 5) [849D69E5] (AR v2)
Трек 6 : извлечено точно (доверие 5) [C17BC438] (AR v2)
5 трек(и) скопированы точно
1 трек(и) не удалось проверить на точность
Некоторые треки не прошли проверку на точность
Конец отчёта
==== Контрольная сумма отчёта B38373F9013D71863D9BE4406DB12FC813EBA4F6FF2B968236DF9AD4094E1E44 ====

CD3:Треклист:

Act II
01. Vorspiel
Scene 1
02. Schlafst du, Hagen, mein Sohn?
Scene 2
03. Hoiho, Hagen! Muder Mann!
Scene 3
04. Hoiho! Ihr Gibichs-Mannen, machet euch auf!
Scene 5
05. Heil dir, Gunther!
06. Brunnhild', die hehrste Frau
07. Brunnhild', kuhne Frau!
08. Heil'ge Gotter, himmlische Lenker!
09. Helle Wehr! Heilige Waffe!
10. Gunther! Wehr' deinem Weibe
Scebe 6
11. Welches Unholds List liegt verhohlen?
Total 61.38

Лог создания рипа:

Exact Audio Copy V1.0 beta 3 from 29. August 2011
Отчёт EAC об извлечении, выполненном 5. апреля 2015, 12:46
Richard Wagner / Gotterdammerung - CD3
Дисковод: _NEC DVD_RW ND-3570A Adapter: 2 ID: 0
Режим чтения : Скоростной
Коррекция смещения при чтении : 48
Способность читать области Lead-in и Lead-out : Нет
Заполнение пропущенных сэмплов тишиной : Да
Удаление блоков с тишиной в начале и конце : Нет
При вычислениях CRC использовались нулевые сэмплы : Да
Интерфейс : Встроенный Win32-интерфейс для Win NT/2000
Выходной формат : Пользовательский кодировщик
Выбранный битрейт : 896 kBit/s
Качество : Высокий
Добавление ID3-тега : Нет
Утилита сжатия : C:\Program Files\FLAC Frontend\tools\flac.exe
Дополнительные параметры : -V -8 -T "Date=%year%" -T "Genre=%genre%" %source%
TOC извлечённого CD
Трек | Старт | Длительность | Начальный сектор | Конечный сектор
---------------------------------------------------------------------
1 | 0:00.00 | 2:24.52 | 0 | 10851
2 | 2:24.52 | 8:25.57 | 10852 | 48783
3 | 10:50.34 | 6:20.39 | 48784 | 77322
4 | 17:10.73 | 7:36.35 | 77323 | 111557
5 | 24:47.33 | 1:13.54 | 111558 | 117086
6 | 26:01.12 | 7:38.25 | 117087 | 151461
7 | 33:39.37 | 1:12.30 | 151462 | 156891
8 | 34:51.67 | 7:02.58 | 156892 | 188599
9 | 41:54.50 | 1:22.67 | 188600 | 194816
10 | 43:17.42 | 3:01.29 | 194817 | 208420
11 | 46:18.71 | 15:19.26 | 208421 | 277371
Характеристики диапазона извлечения и сообщения об ошибках
Выбранный диапазон
Имя файла N:\Wagner - Gotterdammerung - Haenchen\CD3\Richard Wagner - Gotterdammerung - CD3.wav
Пиковый уровень 83.8 %
Скорость извлечения 14.5 X
CRC теста F88C4F49
CRC копии F88C4F49
Копирование... OK
Ошибок не произошло
AccurateRip: сводка
Трек 1 : извлечено точно (доверие 5) [F3B90351] (AR v2)
Трек 2 : извлечено точно (доверие 5) [ED365448] (AR v2)
Трек 3 : извлечено точно (доверие 5) [F8F5E122] (AR v2)
Трек 4 : извлечено точно (доверие 5) [238BFA47] (AR v2)
Трек 5 : извлечено точно (доверие 5) [97CCD3D4] (AR v2)
Трек 6 : извлечено точно (доверие 5) [65DC9F69] (AR v2)
Трек 7 : извлечено точно (доверие 5) [D582FF6F] (AR v2)
Трек 8 : извлечено точно (доверие 5) [F59C3539] (AR v2)
Трек 9 : извлечено точно (доверие 5) [E045D568] (AR v2)
Трек 10 : извлечено точно (доверие 5) [864E3719] (AR v2)
Трек 11 : извлечено точно (доверие 5) [87F87885] (AR v2)
Все треки извлечены точно
Конец отчёта
==== Контрольная сумма отчёта 9EEDB3BA8321952FE9FC8AF7786245DA2167D4AA523F5A7EA66F792D94E7D9BE ====

CD4:Треклист:

Act III
01. Vorspiel
Scene 1
02. Frau Sonne sendet lichte Strahlen
03. Ein Albe fuhrte mich irr
04. So schon!
05. Mein Schwert zerschwang einen Speer
Scene 2
06. Hoiho?
07. Brunnhilde! Heilige Braut!
08. Trauermarsch
Scene 3
09. War das sein Horn?
10. Starke Scheite schichtet mir dort
11. Fliegt heim, ihr Raben!
12. Nachspiel!
Total 73.59

Лог создания рипа:

Exact Audio Copy V1.0 beta 3 from 29. August 2011
Отчёт EAC об извлечении, выполненном 5. апреля 2015, 15:13
Richard Wagner / Gotterdammerung - CD4
Дисковод: _NEC DVD_RW ND-3570A Adapter: 2 ID: 0
Режим чтения : Скоростной
Коррекция смещения при чтении : 48
Способность читать области Lead-in и Lead-out : Нет
Заполнение пропущенных сэмплов тишиной : Да
Удаление блоков с тишиной в начале и конце : Нет
При вычислениях CRC использовались нулевые сэмплы : Да
Интерфейс : Встроенный Win32-интерфейс для Win NT/2000
Выходной формат : Пользовательский кодировщик
Выбранный битрейт : 896 kBit/s
Качество : Высокий
Добавление ID3-тега : Нет
Утилита сжатия : C:\Program Files\FLAC Frontend\tools\flac.exe
Дополнительные параметры : -V -8 -T "Date=%year%" -T "Genre=%genre%" %source%
TOC извлечённого CD
Трек | Старт | Длительность | Начальный сектор | Конечный сектор
---------------------------------------------------------------------
1 | 0:00.00 | 2:54.08 | 0 | 13057
2 | 2:54.08 | 3:24.62 | 13058 | 28419
3 | 6:18.70 | 2:59.66 | 28420 | 41910
4 | 9:18.61 | 4:18.61 | 41911 | 61321
5 | 13:37.47 | 5:33.00 | 61322 | 86296
6 | 19:10.47 | 15:24.26 | 86297 | 155622
7 | 34:34.73 | 4:33.17 | 155623 | 176114
8 | 39:08.15 | 5:11.61 | 176115 | 199500
9 | 44:20.01 | 11:03.36 | 199501 | 249261
10 | 55:23.37 | 10:00.60 | 249262 | 294321
11 | 65:24.22 | 4:49.28 | 294322 | 316024
12 | 70:13.50 | 3:45.54 | 316025 | 332953
Характеристики диапазона извлечения и сообщения об ошибках
Выбранный диапазон
Имя файла N:\Wagner - Gotterdammerung - Haenchen\CD4\Richard Wagner - Gotterdammerung - CD4.wav
Пиковый уровень 83.4 %
Скорость извлечения 15.2 X
CRC теста AF3C10C0
CRC копии AF3C10C0
Копирование... OK
Ошибок не произошло
AccurateRip: сводка
Трек 1 : извлечено точно (доверие 5) [F964303F] (AR v2)
Трек 2 : извлечено точно (доверие 5) [34647FCF] (AR v2)
Трек 3 : извлечено точно (доверие 5) [EB69B44A] (AR v2)
Трек 4 : извлечено точно (доверие 5) [9666D761] (AR v2)
Трек 5 : извлечено точно (доверие 5) [D9E911A5] (AR v2)
Трек 6 : извлечено точно (доверие 5) [0688D94B] (AR v2)
Трек 7 : извлечено точно (доверие 5) [4B9A4BF8] (AR v2)
Трек 8 : извлечено точно (доверие 4) [561A1244] (AR v2)
Трек 9 : извлечено точно (доверие 5) [F3F60195] (AR v2)
Трек 10 : извлечено точно (доверие 5) [AEE15090] (AR v2)
Трек 11 : извлечено точно (доверие 5) [7BCA272E] (AR v2)
Трек 12 : извлечено точно (доверие 5) [3F535E47] (AR v2)
Все треки извлечены точно
Конец отчёта
==== Контрольная сумма отчёта A99182C26527E29B63DD2907898A0FEA0E44AD49A7F3A624C2F7B640E66A6804 ====

Исполнители:

Stig Andersen (Siegfried)
Günter von Kannen (Alberich)
Linda Watson (Brünnhilde)
Robert Bork (Gunther)
Kurt Rydl (Hagen)
Birgitta Svendén (Erste Norn)
Michaela Schuster (Zweite Norn)
Irmgard Vilsmaier (Dritte Norn)
Irmgard Vilsmaier (Gutrune)
Alexandra Coku (Woglinde)
Michaela Schuster (Waltraute)
Natascha Petrinsky (Wellgunde)
Elena Zhidkova (Floßhilde)
Nederlands Philarmonisch Orkest
Koor van De Nederlandse Opera, Winfried Maczewski
Hartmut Haenchen
Das Rheingold
Siegfried



Показать сообщения:    

Текущее время: 24-Янв 00:02

Часовой пояс: UTC + 3


Вы не можете начинать темы
Вы не можете отвечать на сообщения
Вы не можете редактировать свои сообщения
Вы не можете удалять свои сообщения
Вы не можете голосовать в опросах
Вы не можете прикреплять файлы к сообщениям
Вы не можете скачивать файлы