Человек-невидимка (Глеб Селянин) [1977, фантастика, телеспектакль, TVRip]


 

[Цитировать]

Человек-невидимка
Телеспектакль
Жанр: фантастика
Год выпуска: 1977
Продолжительность: 01:43:39
Режиссёр: Глеб Селянин
В ролях:
Гриффин - Ростислав Катанский
Бантинг, викарий - Михаил Данилов
Касс, врач - Михаил Светин
Хенфри, часовщик - Изиль Заблудовский
Марвел, бродяга - Анатолий Равикович
Миссис Холл - Ольга Волкова
Холл, хозяин гостиницы - Анатолий Гаричев
Милли, служанка - Марина Мальцева
Джафферс, констебль - Александр Анисимов
Миссис Бантинг - Галина Волкова
Гоулд, учитель - Борис Улитин
Матрос - Анатолий Пузырев
Экономка - Агния Елекоева
Доктор Кемп - Валерий Доронин
Эдай, полковник - Валерий Караваев
Описание: По мотивам одноименного романа Герберта Уэллса.
Эта невероятная история произошла в Англии 9 февраля 1896 года. В Айпинге, в трактире "Кучер и кони", неведомо откуда появился странный незнакомец, закутанный с головы до пят. Несмотря на бушевавшую в тот день вьюгу, он пришел с железнодорожной станции Брэмблхерст пешком, зябко кутаясь в широкое пальто. Шея его была замотана толстым шарфом, а лицо скрыто полями широкой фетровой шляпы; в руке, обтянутой толстой перчаткой, он держал небольшой черный саквояж. Хозяйка трактира миссис Холл любезно проводила незнакомца в его комнату, но удивлению ее не было предела, когда она увидела посетителя без шляпы! Лоб и уши этого человека от самого края синих очков были тщательно забинтованы, густые черные волосы пучками торчали, в беспорядке выбиваясь из-под перекрещенных бинтов. Нижнюю часть лица он прикрывал, салфеткой, так что ни его рта, ни подбородка не было видно. Конечно же миссис Холл была поражена его странным видом, но все-таки она была счастлива заполучить в это время года постояльца, да еще такого, который не торгуется. Ведь она даже и представить себе не могла последствий этого визита!
Релиз:
Семпл: http://multi-up.com/1042341
Качество видео: TVRip
Формат видео: AVI
Видео: 704x528 (1.33:1), 25 fps, XviD MPEG-4 ~1872 kbps avg, 0.20 bit/pixel
Аудио: 48 kHz, MPEG Layer 3, 2 ch, ~128.00 kbps avg

MediaInfo

General
Complete name : Chelovek.nevidimka.1977.TVRip.fenixclub.avi
Format : AVI
Format/Info : Audio Video Interleave
File size : 1.46 GiB
Duration : 1h 43mn
Overall bit rate : 2 011 Kbps
Writing application : VirtualDubModRus 1.5.10.2 (build 2542/release)
Writing library : VirtualDub build 32842/release
Video
ID : 0
Format : MPEG-4 Visual
Format profile : Advanced Simple@L5
Format settings, BVOP : 2
Format settings, QPel : No
Format settings, GMC : No warppoints
Format settings, Matrix : Default (H.263)
Muxing mode : Packed bitstream
Codec ID : XVID
Codec ID/Hint : XviD
Duration : 1h 43mn
Bit rate : 1 873 Kbps
Width : 704 pixels
Height : 528 pixels
Display aspect ratio : 4:3
Frame rate : 25.000 fps
Color space : YUV
Chroma subsampling : 4:2:0
Bit depth : 8 bits
Scan type : Progressive
Compression mode : Lossy
Bits/(Pixel*Frame) : 0.202
Stream size : 1.36 GiB (93%)
Writing library : XviD 73
Audio
ID : 1
Format : MPEG Audio
Format version : Version 1
Format profile : Layer 3
Mode : Joint stereo
Mode extension : MS Stereo
Codec ID : 55
Codec ID/Hint : MP3
Duration : 1h 43mn
Bit rate mode : Constant
Bit rate : 128 Kbps
Channel(s) : 2 channels
Sampling rate : 48.0 KHz
Compression mode : Lossy
Stream size : 94.9 MiB (6%)
Alignment : Split accross interleaves
Interleave, duration : 40 ms (1.00 video frame)
Interleave, preload duratio : 500 ms

Скриншот с названием постановки

Скриншоты





Показать сообщения:    

Текущее время: 10-Дек 11:56

Часовой пояс: UTC + 3


Вы не можете начинать темы
Вы не можете отвечать на сообщения
Вы не можете редактировать свои сообщения
Вы не можете удалять свои сообщения
Вы не можете голосовать в опросах
Вы не можете прикреплять файлы к сообщениям
Вы не можете скачивать файлы