[TR24][OF] Ludwig van Beethoven - Piano Concerto No. 3, Frédéric (Frederic) Chopin - Piano Concerto No. 1 (Gary Graffman, Walter Hendl & Chicago Symphony Orchestra, Charles Munch & Boston Symphony Orchestra) - 2015 (Classical)

DL-List and Torrent activity [Update пиров]
Size:  1.27 GB   |    Registered:  7 months 2 days   |    Completed:  0 times

Seeder not seen: Never



Gary Graffman
plays Beethoven & Chopin
Walter Hendl & The Chicago Symphony Orchestra
Charles Munch & The Boston Symphony Orchestra
- Год издания/переиздания:
Beethoven: 1961/2015
Chopin: 1964/2015

Жанр: Classical
Издатель (лейбл): High Defintition Tape Transfers
Продолжительность: 01:11:32
Наличие сканов: Sleeve, Digital Booklet
- -
Ludwig van Beethoven (1712-1773)
Piano Concerto No. 3 in C minor, Op. 37
01. I. Allegro con brio (15:46)
02. II. Largo (9:38)
03. III. Rondo. Allegro (8:40)
Frédéric Chopin (1810-1849)
Piano Concerto No. 1 in E minor, Op. 11
04. I. Allegro maestoso (17:17)
05. II. Romance - Larghetto (10:33)
06. III. Rondo - Vivace (9:38)

Gary Graffman (piano)
Chicago Symphony Orchestra (Beethoven)
Walter Hendl (conductor)
Boston Symphony Orchestra (Chopin)
Charles Munch (conductor)
Recording Info: Beethoven Recorded in 1961 Venue: Chicago Symphony Hall
Chopin Recorded in 1964 Venue: Boston Symphony Hall
Transfered from RCA 4-track Tapes

Контейнер: FLAC (*.flac)
Тип рипа: tracks
Разрядность: 24bit / 96kHz
Количество каналов: 2.0
-О релизе
Graffman was born in New York City to Russian-Jewish parents. Having started piano at age 3, Graffman entered the Curtis Institute of Music at age 7 in 1936 as a piano student of Isabelle Vengerova. After graduating from Curtis in 1946, he made his professional solo debut with conductor Eugene Ormandy and the Philadelphia Orchestra. By the age of 20 Gary Graffman had made a name for himself world-wide as a classical pianist. In 1948 he won the prestigious Leventritt Award. He then furthered his piano studies with Rudolph Serkin at the Marlboro Music Festival and informally with Vladimir Horowitz. In 1979 he sprained the ring finger of his right hand. Because of this injury he began re-fingering some passages for that hand in such a way as to avoid using the affected finger; unfortunately this altered technique exacerbated the injury rather than ameliorating it, ultimately forcing him to stop using his right hand altogether..
Seven left-hand works have been commissioned for Graffman. In 1993, for example, he performed the world premiere of Ned Rorem's Piano Concerto No. 4, written specically for the left hand, and in 2001 he premiered Daron Hagen's concerto Seven Last Words. The American composer William Bolcom composed his Concerto for Two Pianos, Left Hand for Graffman and his close friend Leon Fleisher, who has also suffered from debilitating problems with his right hand. It received its first performance in Baltimore in April 1996. The concerto is constructed in such a way that it can be performed in one of three ways, with either piano part alone with reduced orchestra, or with both piano parts and the two reduced orchestras
combined into a full orchestra...

ОтчётыДинамический диапазон

foobar2000 1.2.2 / Dynamic Range Meter 1.1.1
log date: 2015-04-06 18:13:48
Analyzed: Gary Graffman, Boston Symphony Orchestra, Charles Munch / Gary Graffman Plays Beethoven & Chopin (1-3)
Gary Graffman, Chicago Symphony Orchestra, Walter Hendl / Gary Graffman Plays Beethoven & Chopin (4-6)
DR Peak RMS Duration Track
DR12 -2.27 dB -19.56 dB 17:17 ?-Piano Concerto No. 1: I. Allegro maestoso
DR14 -6.07 dB -26.01 dB 10:33 ?-Piano Concerto No. 1: II. Romance - Larghetto
DR13 -2.43 dB -20.04 dB 9:38 ?-Piano Concerto No. 1: III. Rondo - Vivace
DR9 -1.91 dB -15.78 dB 15:46 ?-Piano Concerto No. 3: I. Allegro con brio
DR11 -2.73 dB -19.43 dB 9:38 ?-Piano Concerto No. 3: II. Largo
DR8 -1.95 dB -14.60 dB 8:40 ?-Piano Concerto No. 3: III. Rondo. Allegro
Number of tracks: 6
Official DR value: DR11
Samplerate: 96000 Hz
Channels: 2
Bits per sample: 24
Bitrate: 2698 kbps
Codec: FLAC

Скриншот спектра частот

Доп. информация

При скачивании, если необходимо, переименуйте папку, в которой будет находиться альбомБольшая просьба к скачавшим поддерживать раздачу! Помогайте другим, ведь вам тоже может понадобиться помощь!Не забываем говорить "Спасибо"!Комментарии приветствуются!
Torrent: Registered [ 2016-03-20 00:51 ] · FDCFC673C5B2C0BC300F73254F86BFC6178599B1

Download .torrent


14 KB

Status: checked
Completed: 0 times
Size: 1.27 GB

Quick Reply


Heads necessary to send messages to enable JavaScript
Display posts:    

Current time is: 22-Oct 16:29

All times are UTC + 3

You can post new topics in this forum
You can reply to topics in this forum
You cannot edit your posts in this forum
You cannot delete your posts in this forum
You cannot vote in polls in this forum
You cannot attach files in this forum
You can download files in this forum