Звуковое Шоссе - Чикаго, (Эпизод 1) / Foo Fighters: Sonic Highways - Chicago (Episode 1) (Dave Grohl) [17.10.2014, Музыка, HDTVRip-AVC]


Статистика раздачи [Обновить пиров]
Размер:  920 MB   |    Зарегистрирован:  8 месяцев 19 дней   |    Скачан:  0 раз

Полного источника не было: Никогда

 
   
 
 
 

[Цитировать]

Звуковое Шоссе - Чикаго, (Эпизод 1) 2014 / Foo Fighters: Sonic Highways - Chicago (Episode 1) 2014
Дата/Год выпуска: 17.10.2014
Страна: США
Жанр: Документальный, музыкальный
Продолжительность: 00:59:41
Перевод: Любительский (многоголосый закадровый)
Доп. инфо о переводе: Abandoned Studio
Русские субтитры: нет
Оригинальная аудиодорожка: нет
Режиссер: Дэйв Грол/Dave Grohl
Телеканал: HBO
Описание: Заручившись поддержкой боссов телеканала HBO, Foo Fighters отправились в вояж по восьми важнейшим для американской музыки городам, чтобы снять документальный сериал «Sonic Higways». Этот проект является своеобразным этюдом, который дает представление о музыкальной карте Америки. Работа над «Sonic Highways» и стала основой для нового альбома Foo Fighters. Грол не только брал интервью, но и записывал в каждом городе по песне с участием местных музыкантов[6]. Грол утверждает, что пластинка — это самостоятельное произведение, но без док. фильма в ней слишком многое остается непонятым и нераскрытым. Сериал раскрывает истинный замысел фронтмена и сосредотачивает внимание слушателя на нюансах каждой песни. В картине музыканты Foo Fighters в качестве творческих единиц вообще отходят на второй план. Пытаясь докопаться до корней американской музыки и собственного звучания, они выступают бережными рассказчиками, практически историками. В этом контексте каждая песня оказывается не столько демонстрацией возможностей группы, сколько трогательным посвящением Грола американской музыке
Сэмпл: Сэмпл
качество: HDRip
формат: MP4
Видео: Кодек: H.264 (NTSC), Разрешение кадра: 720 x 404 (16:9), Битрейт: 1 995 kbps, Частота кадров в секунду: 23,976 fps
Аудио: Кодек: AAC, Битрейт: 157 kbps, Частота дискретизации: 48000 kHz, Stereo

MediaInfo

Complete name : /Users/applesoranjes/Desktop/Record/Sonic Highways/Episode 1/Episode 1.mp4
Format : MPEG-4
Codec ID : M4V
File size : 920 MiB
Duration : 59mn 41s
Overall bit rate mode : Variable
Overall bit rate : 2 155 Kbps
Encoded date : UTC 2015-04-06 21:00:55
Tagged date : UTC 2015-04-06 21:01:46
©TIM : 00:00:00:00
©TSC : 24000
©TSZ : 1001
Video
ID : 1
Format : AVC
Format/Info : Advanced Video Codec
Format profile : Baseline@L3.1
Format settings, CABAC : No
Format settings, ReFrames : 2 frames
Codec ID : avc1
Codec ID/Info : Advanced Video Coding
Duration : 59mn 41s
Source duration : 59mn 41s
Bit rate : 1 995 Kbps
Width : 720 pixels
Height : 404 pixels
Display aspect ratio : 16:9
Frame rate mode : Variable
Frame rate : 23.976 fps
Minimum frame rate : 23.976 fps
Maximum frame rate : 24.000 fps
Standard : NTSC
Color space : YUV
Chroma subsampling : 4:2:0
Bit depth : 8 bits
Scan type : Progressive
Bits/(Pixel*Frame) : 0.286
Stream size : 852 MiB (93%)
Source stream size : 852 MiB (93%)
Language : English
Encoded date : UTC 2015-04-06 21:00:55
Tagged date : UTC 2015-04-06 21:00:55
mdhd_Duration : 3581286
Audio
ID : 2
Format : AAC
Format/Info : Advanced Audio Codec
Format profile : LC
Codec ID : 40
Duration : 59mn 41s
Source duration : 59mn 41s
Bit rate mode : Variable
Bit rate : 157 Kbps
Maximum bit rate : 257 Kbps
Channel(s) : 2 channels
Channel positions : Front: L R
Sampling rate : 48.0 KHz
Compression mode : Lossy
Stream size : 67.2 MiB (7%)
Source stream size : 67.2 MiB (7%)
Language : English
Encoded date : UTC 2015-04-06 21:00:55
Tagged date : UTC 2015-04-06 21:00:55
mdhd_Duration : 3581333

Скриншоты

[teatrix.ru].t20858.torrent 
Торрент: Зарегистрирован [ 2016-03-20 00:51 ] · 9659D2ED822CC2365EC15A42BFC37C786A209524

Скачать .torrent

Скачать

19 KB

Статус: проверено
Скачан: 0 раз
Размер: 920 MB
terms.php



Быстрый ответ

Имя:

      
Для отправки сообщений необходимо включить JavaScript
Показать сообщения:    

Текущее время: 08-Дек 01:21

Часовой пояс: UTC + 3


Вы можете начинать темы
Вы можете отвечать на сообщения
Вы не можете редактировать свои сообщения
Вы не можете удалять свои сообщения
Вы не можете голосовать в опросах
Вы не можете прикреплять файлы к сообщениям
Вы можете скачивать файлы