[TR24][OF] Benjamin Britten & Samuel Barber - Piano Concertos · Nocturnes (Elizabeth Joy Roe, London Symphony Orchestra & Emil Tabakov) - 2015 (Classical)


Статистика раздачи [Обновить пиров]
Размер:  1.1 GB   |    Зарегистрирован:  8 месяцев 22 дня   |    Скачан:  1 раз

Полного источника не было: 2 месяца 27 дней

 
   
 
 
 

[Цитировать]

Britten & Barber
Piano Concertos · Nocturnes
Elizabeth Joy Roe
London Symphony Orchestra & Emil Tabakov
- Год издания: 2015
Жанр: Classical
Издатель (лейбл): Decca
Продолжительность: 01:14:29
Наличие сканов: Sleeve, Digital Booklet
- -
Benjamin Britten (1913-1976)
Piano Concerto, Op.13 (Revised Version 1945)
01. 1. Toccata (12:59)
02. 2. Waltz (5:07)
03. 3. Impromptu (8:16)
04. 4. March (8:36)
Samuel Barber (1910-1981)
Piano Concerto, Op.38
05. 1. Allegro appassionato (14:34)
06. 2. Moderato (7:49)
07. 3. Allegro molto (6:40)
Nocturne, 'Homage to John Field' Op. 33
08. Nocturne, 'Homage to John Field' (4:35)
Benjamin Britten
Night Piece (Notturno)
09. Night Piece (Notturno) (5:54)

-
Elizabeth Joy Roe, piano
London Symphony Orchestra
Emil Tabakov, conductor
Recorded: Cadogan Hall, London, September 20-22, 2013

-
Контейнер: FLAC (*.flac)
Тип рипа: tracks
Разрядность: 24bit / 96kHz
Количество каналов: 2.0
-О релизе
This solo release, a unique coupling of two of the 20th Century’s greatest piano concertos marks Decca’s first-ever recording of the Barber concerto and the first of the Britten since the classic Richter account conducted by the composer in 1970.
Elizabeth Joy Roe has been performing both works since a student at Julliard and has written extensive booklet notes which detail the intriguing parallels between the two composers. Her New York concerto debut was in the Britten conducted by James Conlon at Alice Tully Hall, Lincoln Center and in 2003 she was invited to replace the Barber concerto’s dedicatee, John Browning, at a performance with the Delaware Symphony shortly after Browning’s death.
The album is completed with two solo piano nocturnes by each composer: Britten’s ‘Night Piece’ and Barber’s ‘Nocturne - Homage to John Field’, widely-considered the father of the nocturne.

ОтчётыДинамический диапазон

foobar2000 1.2.2 / Dynamic Range Meter 1.1.1
log date: 2015-04-07 11:32:06
--------------------------------------------------------------------------------
Analyzed: Elizabeth Joy Roe, London Symphony Orchestra, Emil Tabakov / Britten & Barber: Piano Concertos & Nocturnes (1-7)
Elizabeth Joy Roe / Britten & Barber: Piano Concertos & Nocturnes (8-9)
--------------------------------------------------------------------------------
DR Peak RMS Duration Track
--------------------------------------------------------------------------------
DR13 0.00 dB -19.03 dB 12:59 ?-Piano Concerto, Op.13: 1. Toccata
DR15 -0.17 dB -21.52 dB 5:07 ?-Piano Concerto, Op.13: 2. Waltz
DR16 -0.26 dB -22.19 dB 8:16 ?-Piano Concerto, Op.13: 3. Impromptu
DR12 0.00 dB -17.14 dB 8:36 ?-Piano Concerto, Op.13: 4. March
DR16 -0.27 dB -22.19 dB 14:34 ?-Piano Concerto, Op.38: 1. Allegro appassionato
DR14 -7.58 dB -28.75 dB 7:49 ?-Piano Concerto, Op.38: 2. Moderato
DR13 0.00 dB -18.58 dB 6:40 ?-Piano Concerto, Op.38: 3. Allegro molto
DR14 -6.59 dB -27.54 dB 4:35 ?-Nocturne, 'Homage to John Field' Op. 33
DR16 -7.68 dB -31.33 dB 5:54 ?-Night Piece (Notturno)
--------------------------------------------------------------------------------
Number of tracks: 9
Official DR value: DR14
Samplerate: 96000 Hz
Channels: 2
Bits per sample: 24
Bitrate: 1815 kbps
Codec: FLAC
================================================================================

Скриншот спектра частот

Доп. информация

При скачивании, если необходимо, переименуйте папку, в которой будет находиться альбомБольшая просьба к скачавшим поддерживать раздачу! Помогайте другим, ведь вам тоже может понадобиться помощь!Не забываем говорить "Спасибо"!Комментарии приветствуются!
[teatrix.ru].t20860.torrent 
Торрент: Зарегистрирован [ 2016-03-20 00:51 ] · 5B628F218EAFC66DDFF7BE35501593290C84F38C

Скачать .torrent

Скачать

12 KB

Статус: проверено
Скачан: 1 раз
Размер: 1.1 GB
terms.php



Быстрый ответ

Имя:

      
Для отправки сообщений необходимо включить JavaScript
Показать сообщения:    

Текущее время: 11-Дек 11:07

Часовой пояс: UTC + 3


Вы можете начинать темы
Вы можете отвечать на сообщения
Вы не можете редактировать свои сообщения
Вы не можете удалять свои сообщения
Вы не можете голосовать в опросах
Вы не можете прикреплять файлы к сообщениям
Вы можете скачивать файлы