[TR24][OF] Wolfgang Amadeus Mozart - Violin Concertos Nos. 1, 3 & 4, Rondo K.372, Adagio K.261 (Frank Peter Zimmermann, Kammerorchester des Symphonieorchesters des Bayerischen Rundfunks, Radoslaw Szulc) - 2015 (Classical)


Статистика раздачи [Обновить пиров]
Размер:  803 MB   |    Зарегистрирован:  8 месяцев 19 дней   |    Скачан:  0 раз

Полного источника не было: Никогда

 
   
 
 
 

[Цитировать]

Wolfgang Amadeus Mozart
Violin Concertos Nos. 1, 3 & 4 · Rondo K.372 · Adagio K.261
Frank Peter Zimmermann
Kammerorchester des Symphonieorchesters des Bayerischen Rundfunks · Radoslaw Szulc
- Год издания: 2015
Жанр: Classical
Издатель (лейбл): hänssler CLASSIC
Продолжительность: 01:17:31
Наличие сканов: Sleeve, Digital Booklet
- -
Wolfgang Amadeus Mozart (1756-1791)
Violin Concerto No. 1 in B-Flat Major, K. 207
01. I. Allegro moderato (7:46)
02. II. Adagio (7:16)
03. III. Presto (5:44)
Adagio in E Major, K. 261
04. Adagio in E Major (6:56)
Rondo in C Major, K. 373
05. Rondo in C Major (5:32)
Violin Concerto No. 3 in G Major, K. 216
06. I. Allegro (8:39)
07. II. Adagio (7:44)
08. III. Rondeau: Allegro (6:05)
Violin Concerto No. 4 in D Major, K. 218
09. I. Allegro (8:48)
10. II. Andante cantabile (6:00)
11. III. Rondo: Andante grazioso (7:01)

-
Frank Peter Zimmermann, violin
Kammerorchester des Symphonieorchesters des Bayerischen Rundfunks
Radoslaw Szulc, conductor
Originally recorded in 2015

-
Контейнер: FLAC (*.flac)
Тип рипа: tracks
Разрядность: 24bit / 48kHz
Количество каналов: 2.0
-О релизе
Today when Frank Peter Zimmermann says that Mozart has always been easy for him, he needs only call to mind his debut concert at the age of ten – when he played Mozart's G major Concerto K. 216; or when, some 30 years ago, as a fresh 20-year-old, the same FPZ made his first recording of the five concertos for EMI; and then if one factors in that over the years that each of these Mozart works has passed through his hands nearly 300 times in concert, then one can begin to appreciate the intense physical and spiritual experience that Frank Peter Zimmermann brings to these new recordings.
One will immediately hear on this album the experience that a master can bring to these works, because no one else plays these works with the same incredible, almost balletic, weightless elegance and rich tone, reaching a degree of intimacy, without any obstacle between the performer and the listener, as does Frank Peter Zimmermann. Mozart’s every wish is perfectly fulfilled! The Chamber Orchestra of the Symphony Orchestra of the Bavarian broadcasting company serves both masters admirably.

ОтчётыДинамический диапазон

foobar2000 1.2.2 / Dynamic Range Meter 1.1.1
log date: 2015-04-07 12:13:22
--------------------------------------------------------------------------------
Analyzed: Frank Peter Zimmermann, Kammerorchester des Symphonieorchesters des Bayerischen Rundfunks, Radoslaw Szulc / Mozart: Violin Concertos Nos. 1, 3 & 4
--------------------------------------------------------------------------------
DR Peak RMS Duration Track
--------------------------------------------------------------------------------
DR13 -2.06 dB -21.08 dB 7:46 ?-Violin Concerto No. 1 in B-Flat Major, K. 207: I. Allegro moderato
DR13 -2.29 dB -21.81 dB 7:16 ?-Violin Concerto No. 1 in B-Flat Major, K. 207: II. Adagio
DR14 -0.10 dB -20.57 dB 5:44 ?-Violin Concerto No. 1 in B-Flat Major, K. 207: III. Presto
DR13 -2.50 dB -22.26 dB 6:56 ?-Adagio in E Major, K. 261
DR13 -3.95 dB -22.36 dB 5:32 ?-Rondo in C Major, K. 373
DR14 -1.01 dB -20.49 dB 8:39 ?-Violin Concerto No. 3 in G Major, K. 216: I. Allegro
DR13 -3.71 dB -24.15 dB 7:44 ?-Violin Concerto No. 3 in G Major, K. 216: II. Adagio
DR14 -1.06 dB -21.08 dB 6:05 ?-Violin Concerto No. 3 in G Major, K. 216: III. Rondeau: Allegro
DR15 -0.93 dB -21.10 dB 8:48 ?-Violin Concerto No. 4 in D Major, K. 218: I. Allegro
DR12 -2.97 dB -21.23 dB 6:00 ?-Violin Concerto No. 4 in D Major, K. 218: II. Andante cantabile
DR15 -1.23 dB -22.40 dB 7:01 ?-Violin Concerto No. 4 in D Major, K. 218: III. Rondo: Andante grazioso
--------------------------------------------------------------------------------
Number of tracks: 11
Official DR value: DR14
Samplerate: 48000 Hz
Channels: 2
Bits per sample: 24
Bitrate: 1440 kbps
Codec: FLAC
================================================================================

Скриншот спектра частот

Доп. информация

При скачивании, если необходимо, переименуйте папку, в которой будет находиться альбомБольшая просьба к скачавшим поддерживать раздачу! Помогайте другим, ведь вам тоже может понадобиться помощь!Не забываем говорить "Спасибо"!Комментарии приветствуются!
[teatrix.ru].t20861.torrent 
Торрент: Зарегистрирован [ 2016-03-20 00:51 ] · 1D52EB091A81E44FEDF86D21E6B4D4F305EFEDAC

Скачать .torrent

Скачать

17 KB

Статус: проверено
Скачан: 0 раз
Размер: 803 MB
terms.php



Быстрый ответ

Имя:

      
Для отправки сообщений необходимо включить JavaScript
Показать сообщения:    

Текущее время: 08-Дек 21:11

Часовой пояс: UTC + 3


Вы можете начинать темы
Вы можете отвечать на сообщения
Вы не можете редактировать свои сообщения
Вы не можете удалять свои сообщения
Вы не можете голосовать в опросах
Вы не можете прикреплять файлы к сообщениям
Вы можете скачивать файлы