[TR24][OF] Richard Strauss - Tone Poems: Don Juan; Death and Transfiguration (Tod und Verklärung); Till Eulenspiegel’s Merry Pranks (Till Eulenspiegels lustige Streiche) - Manfred Honeck, Pittsburgh Symphony Orchestra - 2014 (Classical)

DL-List and Torrent activity [Update пиров]
Size:  2.19 GB   |    Registered:  7 months 8 days   |    Completed:  0 times

Seeder not seen: Never



Richard Strauss
Don Juan · Death and Transfiguration · Till Eulenspiegel’s Merry Pranks
Manfred Honeck & Pittsburgh Symphony Orchestra
- Год издания: 2014
Жанр: Classical
Издатель (лейбл): Reference Recordings
Продолжительность: 00:59:33
Наличие сканов: Sleeve, Digital Booklet
- -
Richard Strauss (1864-1949)
01. Don Juan Op. 20 (18:28)
02. Death and Transfiguration Op.24 (26:16)
03. Till Eulenspiegel’s Merry Pranks Op.28 (14:50)

Pittsburgh Symphony Orchestra
Manfred Honeck, Music Director
Recorded: June 8-10, 2012 at Heinz Hall for the Performing Arts, Pittsburgh, PA

Контейнер: FLAC (*.flac)
Тип рипа: tracks
Разрядность: 24bit / 176,4kHz
Количество каналов: 2.0
-О релизе
Thrilling live performances from the Pittsburgh Symphony Orchestra, in brilliant audiophile sound! This release is planned as the first in a series of multi-channel hybrid SACD recordings on FRESH! from Reference Recordings. Several additional recordings for the PITTSBURGH LIVE! series are already completed and we expect to release two per year. The next title planned is Bruckner's Fourth Symphony, for spring 2014.
"Richard Strauss was a master when it comes to combining orchestral timbres with deep philosophical concepts, and his orchestration skills are second to none. Even in the darkest and quietest passages of this work there glows an energy like a candle in the black of night. The final ten minutes or so are most impressive, and the Pittsburgh Symphony Orchestra players produce a sound to match. And if the mountain of sound they build isn't enough of a jaw-dropper, it's in the final blissful minute or so, that the ever so soft brass section shines so much they almost glow...Definitely a series off to a great start and one to follow." --Jean-Yves Duperron, Classical Sentinal (Canada)
“Now that the Pittsburgh Symphony has signed on with this pioneering label, let us hope they get some more exposure...because they are clearly one of the very best orchestras in the world right now...Finally, a Eulenspiegel that actually sounds as merry as the title suggests ends the disc on a delightful high. Again, the brass play their hearts out, but the other sections are just as well captured and virtuosic. The winds dance, the strings sing, and not for a moment are you bored. Again, Honeck has a really strong sense of what he wants to do; he let's his orchestra do the talking and stays out of the way...Superlative, and a great start to an exciting new partnership.” --Brian Wigman, Classical.net
"Honeck is already well known as an extremely fine Strauss conductor, but also one with very definite ideas on how these pieces should be interpreted...his admiration for these works is self-evident from the incandescent playing that he elicits from the Pittsburgh Symphony Orchestra...The 5.1 channel recording was made and post-produced in 64fs DSD and the disc also includes HDCD encoding. This is without doubt an impressive start to what promises to be an exciting showcase for the Pittsburgh Symphony Orchestra" --Graham Williams, SA-CD.net

ОтчётыДинамический диапазон

foobar2000 1.2.2 / Dynamic Range Meter 1.1.1
log date: 2015-04-07 14:12:07
Analyzed: Pittsburgh Symphony Orchestra, Manfred Honneck / R. Strauss: Tone Poems
DR Peak RMS Duration Track
DR16 -0.17 dB -21.58 dB 18:28 ?-Don Juan Op. 20
DR15 -1.02 dB -22.29 dB 26:16 ?-Death and Transfiguration Op.24
DR15 -1.00 dB -22.25 dB 14:50 ?-Till Eulenspiegel’s Merry Pranks Op.28
Number of tracks: 3
Official DR value: DR15
Samplerate: 176400 Hz
Channels: 2
Bits per sample: 24
Bitrate: 5210 kbps
Codec: FLAC

Скриншот спектра частот

Доп. информация

При скачивании, если необходимо, переименуйте папку, в которой будет находиться альбомБольшая просьба к скачавшим поддерживать раздачу! Помогайте другим, ведь вам тоже может понадобиться помощь!Не забываем говорить "Спасибо"!Комментарии приветствуются!
Torrent: Registered [ 2016-03-20 00:56 ] · E08FFA168AB6115B048F60B6B435530523787B7C

Download .torrent


12 KB

Status: checked
Completed: 0 times
Size: 2.19 GB

Quick Reply


Heads necessary to send messages to enable JavaScript
Display posts:    

Current time is: 28-Oct 05:36

All times are UTC + 3

You can post new topics in this forum
You can reply to topics in this forum
You cannot edit your posts in this forum
You cannot delete your posts in this forum
You cannot vote in polls in this forum
You cannot attach files in this forum
You can download files in this forum