(Baroque pieces de viole) Marin Marais - Viol Music for the Sun King (Spectre de la Rose) - 1996, FLAC (tracks+.cue) lossless


 

[Цитировать]

Marin Marais - Viol Music for the Sun King

Жанр: Baroque pieces de viole
Страна-производитель диска: Made in Germany
Год издания диска: 1996
Издатель (лейбл): Naxos
Номер по каталогу: 8.553081
Дата записи: 1994
Аудиокодек: FLAC
Тип рипа: tracks+.cue
Битрейт аудио: lossless
Продолжительность: 68'53
Источник: релизер
сайт-источник/ник/другое: Dutchpublisher and Meeting in Music blogspot
Наличие сканов в содержимом раздачи: да
Треклист:

скрытый текст

1. Sonate a la Maresienne: I. Un peu grave - legerement - un peu gai 4:24
2. Sonate a la Maresienne: II. Sarabande 2:15
3. Sonate a la Maresienne: III. Tres vivement - gravement 3:45
4. Sonate a la Maresienne: IV. Gigue 2:06
5. Pieces de violes, Book 3: Suite in D major: I. Prelude 1:38
6. Pieces de violes, Book 3: Suite in D major: II. Fantaisie 0:45
7. Pieces de violes, Book 3: Suite in D major: III. Allemande 2:29
8. Pieces de violes, Book 3: Suite in D major: IV. Rondeau 2:16
9. Pieces de violes, Book 3: Suite in D major: V. Plainte 4:48
10. Pieces de violes, Book 3: Suite in D major: VI. Charivary 2:30
11. Pieces de viole, Book 2: Les Voix humaines 6:29
12. Pieces en Trio: Suite in C minor: I. Prelude 3:06
13. Pieces en Trio: Suite in C minor: II. Caprice 2:24
14. Pieces en Trio: Suite in C minor: III. Passacaille 3:49
15. Pieces de viole, Book 1: Tombeau de M. Meliton 9:29
16. Pieces de viole, Book 2: Couplets de folies 16:33
Исполнители:

скрытый текст

Marin Marais (1656-1728)
Sonate à la Marésienne
Suite in D major; Suite in c minor
Les Voix humaines; Couplets de folies
Tombeau de M. Meliton
Spectre de la Rose
Period instruments
Recorded January 1994
Audio CD (January 23, 1996)

Лог создания рипа

Exact Audio Copy V1.0 beta 4 from 7. December 2014
EAC extraction logfile from 10. March 2015, 12:48
Spectre de la Rose / Viol Music for the Sun King
Used drive : SAMSUNG DVD R/RW SH-W08A Adapter: 1 ID: 0
Read mode : Secure
Utilize accurate stream : Yes
Defeat audio cache : Yes
Make use of C2 pointers : No
Read offset correction : 116
Overread into Lead-In and Lead-Out : No
Fill up missing offset samples with silence : Yes
Delete leading and trailing silent blocks : No
Null samples used in CRC calculations : Yes
Used interface : Native Win32 interface for Win NT & 2000
Gap handling : Appended to previous track
Used output format : User Defined Encoder
Selected bitrate : 768 kBit/s
Quality : High
Add ID3 tag : No
Command line compressor : D:\Program Files\Exact Audio Copy\FLAC\FLAC.EXE
Additional command line options : -6 -V -T "ARTIST=%artist%" -T "TITLE=%title%" -T "ALBUM=%albumtitle%" -T "DATE=%year%" -T "TRACKNUMBER=%tracknr%" -T "GENRE=%genre%" -T "COMMENT=%comment%" -T "BAND=%albuminterpret%" -T "ALBUMARTIST=%albuminterpret%" -T "COMPOSER=%composer%" %haslyrics%--tag-from-file=LYRICS="%lyricsfile%"%haslyrics% -T "DISCNUMBER=%cdnumber%" -T "TOTALDISCS=%totalcds%" -T "TOTALTRACKS=%numtracks%" %hascover%--picture="%coverfile%"%hascover% %source% -o %dest%
TOC of the extracted CD
Track | Start | Length | Start sector | End sector
---------------------------------------------------------
1 | 0:00.00 | 4:24.55 | 0 | 19854
2 | 4:24.55 | 2:15.70 | 19855 | 30049
3 | 6:40.50 | 3:45.15 | 30050 | 46939
4 | 10:25.65 | 2:06.07 | 46940 | 56396
5 | 12:31.72 | 1:38.48 | 56397 | 63794
6 | 14:10.45 | 0:45.50 | 63795 | 67219
7 | 14:56.20 | 2:29.52 | 67220 | 78446
8 | 17:25.72 | 2:15.73 | 78447 | 88644
9 | 19:41.70 | 4:48.00 | 88645 | 110244
10 | 24:29.70 | 2:30.60 | 110245 | 121554
11 | 27:00.55 | 6:29.20 | 121555 | 150749
12 | 33:30.00 | 3:06.10 | 150750 | 164709
13 | 36:36.10 | 2:24.52 | 164710 | 175561
14 | 39:00.62 | 3:49.58 | 175562 | 192794
15 | 42:50.45 | 9:29.70 | 192795 | 235539
16 | 52:20.40 | 16:33.35 | 235540 | 310049
Track 1
Filename D:\EAC\01 Sonate à la Marésienne (1723) - I. Un peu grave - legèrement - un peu gai.wav
Pre-gap length 0:00:02.00
Peak level 58.6 %
Extraction speed 5.1 X
Track quality 100.0 %
Test CRC B0D915AC
Copy CRC B0D915AC
Copy OK
Track 2
Filename D:\EAC\02 Sonate à la Marésienne (1723) - II. Sarabande.wav
Peak level 61.1 %
Extraction speed 5.2 X
Track quality 100.0 %
Test CRC 3B95D8CE
Copy CRC 3B95D8CE
Copy OK
Track 3
Filename D:\EAC\03 Sonate à la Marésienne (1723) - III. Très vivement - gravement.wav
Peak level 62.7 %
Extraction speed 5.8 X
Track quality 100.0 %
Test CRC 53BEAF9A
Copy CRC 53BEAF9A
Copy OK
Track 4
Filename D:\EAC\04 Sonate à la Marésienne (1723) - IV. Gigue.wav
Peak level 55.1 %
Extraction speed 5.6 X
Track quality 100.0 %
Test CRC 12C81EC9
Copy CRC 12C81EC9
Copy OK
Track 5
Filename D:\EAC\05 Suite in D major (1711) - I. Prélude.wav
Peak level 25.1 %
Extraction speed 5.5 X
Track quality 100.0 %
Test CRC D419B39E
Copy CRC D419B39E
Copy OK
Track 6
Filename D:\EAC\06 Suite in D major (1711) - II. Fantaisie.wav
Peak level 31.2 %
Extraction speed 4.5 X
Track quality 100.0 %
Test CRC 8E8E68FD
Copy CRC 8E8E68FD
Copy OK
Track 7
Filename D:\EAC\07 Suite in D major (1711) - III. Allemande.wav
Peak level 34.1 %
Extraction speed 5.4 X
Track quality 99.9 %
Test CRC F838A81F
Copy CRC F838A81F
Copy OK
Track 8
Filename D:\EAC\08 Suite in D major (1711) - IV. Rondeau.wav
Peak level 41.1 %
Extraction speed 6.3 X
Track quality 100.0 %
Test CRC 0175B98E
Copy CRC 0175B98E
Copy OK
Track 9
Filename D:\EAC\09 Suite in D major (1711) - V. Plainte.wav
Peak level 31.6 %
Extraction speed 7.2 X
Track quality 100.0 %
Test CRC 7B512515
Copy CRC 7B512515
Copy OK
Track 10
Filename D:\EAC\10 Suite in D major (1711) - VI. Charivary.wav
Peak level 42.6 %
Extraction speed 7.0 X
Track quality 100.0 %
Test CRC 85C2108D
Copy CRC 85C2108D
Copy OK
Track 11
Filename D:\EAC\11 Les Voix humaines (1701).wav
Peak level 43.3 %
Extraction speed 8.1 X
Track quality 100.0 %
Test CRC 11B88C34
Copy CRC 11B88C34
Copy OK
Track 12
Filename D:\EAC\12 Suite in c minor (1692) - I. Prélude.wav
Peak level 62.2 %
Extraction speed 8.0 X
Track quality 100.0 %
Test CRC F6E740CF
Copy CRC F6E740CF
Copy OK
Track 13
Filename D:\EAC\13 Suite in c minor (1692) - II. Caprice.wav
Peak level 59.8 %
Extraction speed 7.9 X
Track quality 100.0 %
Test CRC A7D383F6
Copy CRC A7D383F6
Copy OK
Track 14
Filename D:\EAC\14 Suite in c minor (1692) - III. Passacaille.wav
Peak level 49.2 %
Extraction speed 8.6 X
Track quality 100.0 %
Test CRC 7179261A
Copy CRC 7179261A
Copy OK
Track 15
Filename D:\EAC\15 Tombeau de M. Meliton (1686).wav
Peak level 42.7 %
Extraction speed 9.7 X
Track quality 100.0 %
Test CRC 2C86AF85
Copy CRC 2C86AF85
Copy OK
Track 16
Filename D:\EAC\16 Couplets de follies (1701).wav
Peak level 81.1 %
Extraction speed 7.1 X
Track quality 100.0 %
Test CRC 9FE207FA
Copy CRC 9FE207FA
Copy OK
No errors occurred
End of status report

Содержание индексной карты (.CUE)

REM GENRE Classical
REM DATE 1995
REM DISCID CB102610
REM COMMENT "ExactAudioCopy v1.0b4"
PERFORMER "Spectre de la Rose"
TITLE "Viol Music for the Sun King"
FILE "01 Sonate а la Maresienne (1723) - I. Un peu grave - legerement - un peu gai.wav" WAVE
TRACK 01 AUDIO
TITLE "Sonate а la Maresienne (1723) - I. Un peu grave - legerement - un peu gai"
PERFORMER "Spectre de la Rose"
INDEX 01 00:00:00
FILE "02 Sonate а la Maresienne (1723) - II. Sarabande.wav" WAVE
TRACK 02 AUDIO
TITLE "Sonate а la Maresienne (1723) - II. Sarabande"
PERFORMER "Spectre de la Rose"
INDEX 01 00:00:00
FILE "03 Sonate а la Maresienne (1723) - III. Tres vivement - gravement.wav" WAVE
TRACK 03 AUDIO
TITLE "Sonate а la Maresienne (1723) - III. Tres vivement - gravement"
PERFORMER "Spectre de la Rose"
INDEX 01 00:00:00
FILE "04 Sonate а la Maresienne (1723) - IV. Gigue.wav" WAVE
TRACK 04 AUDIO
TITLE "Sonate а la Maresienne (1723) - IV. Gigue"
PERFORMER "Spectre de la Rose"
INDEX 01 00:00:00
FILE "05 Suite in D major (1711) - I. Prelude.wav" WAVE
TRACK 05 AUDIO
TITLE "Suite in D major (1711) - I. Prelude"
PERFORMER "Spectre de la Rose"
INDEX 01 00:00:00
FILE "06 Suite in D major (1711) - II. Fantaisie.wav" WAVE
TRACK 06 AUDIO
TITLE "Suite in D major (1711) - II. Fantaisie"
PERFORMER "Spectre de la Rose"
INDEX 01 00:00:00
FILE "07 Suite in D major (1711) - III. Allemande.wav" WAVE
TRACK 07 AUDIO
TITLE "Suite in D major (1711) - III. Allemande"
PERFORMER "Spectre de la Rose"
INDEX 01 00:00:00
FILE "08 Suite in D major (1711) - IV. Rondeau.wav" WAVE
TRACK 08 AUDIO
TITLE "Suite in D major (1711) - IV. Rondeau"
PERFORMER "Spectre de la Rose"
INDEX 01 00:00:00
FILE "09 Suite in D major (1711) - V. Plainte.wav" WAVE
TRACK 09 AUDIO
TITLE "Suite in D major (1711) - V. Plainte"
PERFORMER "Spectre de la Rose"
INDEX 01 00:00:00
FILE "10 Suite in D major (1711) - VI. Charivary.wav" WAVE
TRACK 10 AUDIO
TITLE "Suite in D major (1711) - VI. Charivary"
PERFORMER "Spectre de la Rose"
INDEX 01 00:00:00
FILE "11 Les Voix humaines (1701).wav" WAVE
TRACK 11 AUDIO
TITLE "Les Voix humaines (1701)"
PERFORMER "Spectre de la Rose"
INDEX 01 00:00:00
FILE "12 Suite in c minor (1692) - I. Prelude.wav" WAVE
TRACK 12 AUDIO
TITLE "Suite in c minor (1692) - I. Prelude"
PERFORMER "Spectre de la Rose"
INDEX 01 00:00:00
FILE "13 Suite in c minor (1692) - II. Caprice.wav" WAVE
TRACK 13 AUDIO
TITLE "Suite in c minor (1692) - II. Caprice"
PERFORMER "Spectre de la Rose"
INDEX 01 00:00:00
FILE "14 Suite in c minor (1692) - III. Passacaille.wav" WAVE
TRACK 14 AUDIO
TITLE "Suite in c minor (1692) - III. Passacaille"
PERFORMER "Spectre de la Rose"
INDEX 01 00:00:00
FILE "15 Tombeau de M. Meliton (1686).wav" WAVE
TRACK 15 AUDIO
TITLE "Tombeau de M. Meliton (1686)"
PERFORMER "Spectre de la Rose"
INDEX 01 00:00:00
FILE "16 Couplets de follies (1701).wav" WAVE
TRACK 16 AUDIO
TITLE "Couplets de follies (1701)"
PERFORMER "Spectre de la Rose"
INDEX 01 00:00:00



Показать сообщения:    

Текущее время: 11-Дек 14:52

Часовой пояс: UTC + 3


Вы не можете начинать темы
Вы не можете отвечать на сообщения
Вы не можете редактировать свои сообщения
Вы не можете удалять свои сообщения
Вы не можете голосовать в опросах
Вы не можете прикреплять файлы к сообщениям
Вы не можете скачивать файлы