(Opera) Wagner - Siegfried (Andersen, Kannen, Watson, Luperi, Dohmen, Gjevang, Clark, Schlotz, Tolzer Knabenchor, Nederlands Philarmonisch Orkest, Hartmut Haenchen) - 2006, FLAC (image+.cue), lossless


 

[Цитировать]

Wagner - Siegfried - Haenchen
Жанр: Opera
Страна-производитель диска: Austria
Год издания диска: 2006
Издатель (лейбл): Et'cetera
Номер по каталогу: KTC 5502
Дата записи: 2004-2005
Аудиокодек: FLAC
Тип рипа: image+.cue
Битрейт аудио: lossless
Продолжительность: 77.07 + 69.06 + 78.30
Источник: собственный рип
Наличие сканов в содержимом раздачи: да

CD1:Треклист:

Act I
01. Vorspiel
Scene 1
02. Zwangvolle Plage!
03. Hoiho! Hoiho!
04. Nun tobst du wieder wie toll!
05. Vieles lehrtest du, Mime!
06. Ans Leben gehst du mir schrier!
07. Und diese Stucke sollst du mir schmieden
Scene 2
08. Heil dir, weiser Schmied!
09. Auf wolkigen Hoh'n wohnen die Gotter
Scene 3
10. Verfluchtes Licht!
11. Was ist's mit dem Furchten?
12. Ist's eine Kunst, was kenn' ich sie nicht?
13. Nothung! Nothung!
14. Hoho! Hoho!
15. Den der Bruder schuf, den schimmernden Reif
Total 77.07

Лог создания рипа:

Exact Audio Copy V1.0 beta 3 from 29. August 2011
Отчёт EAC об извлечении, выполненном 6. апреля 2015, 14:28
Richard Wagner / Siegfried - CD1
Дисковод: _NEC DVD_RW ND-3570A Adapter: 2 ID: 0
Режим чтения : Скоростной
Коррекция смещения при чтении : 48
Способность читать области Lead-in и Lead-out : Нет
Заполнение пропущенных сэмплов тишиной : Да
Удаление блоков с тишиной в начале и конце : Нет
При вычислениях CRC использовались нулевые сэмплы : Да
Интерфейс : Встроенный Win32-интерфейс для Win NT/2000
Выходной формат : Пользовательский кодировщик
Выбранный битрейт : 896 kBit/s
Качество : Высокий
Добавление ID3-тега : Нет
Утилита сжатия : C:\Program Files\FLAC Frontend\tools\flac.exe
Дополнительные параметры : -V -8 -T "Date=%year%" -T "Genre=%genre%" %source%
TOC извлечённого CD
Трек | Старт | Длительность | Начальный сектор | Конечный сектор
---------------------------------------------------------------------
1 | 0:00.00 | 4:20.32 | 0 | 19531
2 | 4:20.32 | 3:13.57 | 19532 | 34063
3 | 7:34.14 | 2:39.08 | 34064 | 45996
4 | 10:13.22 | 2:50.00 | 45997 | 58746
5 | 13:03.22 | 7:24.35 | 58747 | 92081
6 | 20:27.57 | 5:40.71 | 92082 | 117652
7 | 26:08.53 | 3:13.21 | 117653 | 132148
8 | 29:21.74 | 9:44.74 | 132149 | 176022
9 | 39:06.73 | 11:51.69 | 176023 | 229416
10 | 50:58.67 | 3:28.01 | 229417 | 245017
11 | 54:26.68 | 0:34.39 | 245018 | 247606
12 | 55:01.32 | 8:24.74 | 247607 | 285480
13 | 63:26.31 | 7:17.15 | 285481 | 318270
14 | 70:43.46 | 3:12.38 | 318271 | 332708
15 | 73:56.09 | 3:11.03 | 332709 | 347036
Характеристики диапазона извлечения и сообщения об ошибках
Выбранный диапазон
Имя файла N:\Wagner - Siegfried - Haenchen\CD1\Richard Wagner - Siegfried - CD1.wav
Пиковый уровень 85.1 %
Скорость извлечения 15.3 X
CRC теста 317A9DAD
CRC копии 317A9DAD
Копирование... OK
Ошибок не произошло
AccurateRip: сводка
Трек 1 : извлечено точно (доверие 6) [6EDB267C] (AR v2)
Трек 2 : извлечено точно (доверие 6) [C42467DE] (AR v2)
Трек 3 : извлечено точно (доверие 6) [7A163E38] (AR v2)
Трек 4 : извлечено точно (доверие 6) [6D06C33D] (AR v2)
Трек 5 : извлечено точно (доверие 6) [0244BCF7] (AR v2)
Трек 6 : извлечено точно (доверие 6) [E135FB60] (AR v2)
Трек 7 : извлечено точно (доверие 6) [2CBF8403] (AR v2)
Трек 8 : извлечено точно (доверие 6) [7B51E90E] (AR v2)
Трек 9 : извлечено точно (доверие 6) [DB75CD4B] (AR v2)
Трек 10 : извлечено точно (доверие 6) [4618A846] (AR v2)
Трек 11 : извлечено точно (доверие 6) [747BBFBA] (AR v2)
Трек 12 : извлечено точно (доверие 6) [73298EBE] (AR v2)
Трек 13 : извлечено точно (доверие 6) [0F69C6AE] (AR v2)
Трек 14 : извлечено точно (доверие 6) [19E37E48] (AR v2)
Трек 15 : извлечено точно (доверие 6) [A163EB09] (AR v2)
Все треки извлечены точно
Конец отчёта
==== Контрольная сумма отчёта 79423A7BB5CED9A0DA9ED536FC6E55BFD67078924B2137EA6399A2E8779F3509 ====

CD2:Треклист:

Act II
01. Vorspiel
Scene 1
02. In Wald und Nacht vor Neidhohl'
03. Durch Vertrages Treue-Runen
Scene 2
04. Wir sind zur Stelle; bleib hier stehn!
05. Das der mein Vater nicht ist
06. Hei! - ich versuch's
07. Haha!
08. Ist mir doch fast, als sprachen die Voglein zu mir
Scene 3
09. Wohin schleichst du eilig und schlau
10. Was ihr mir nutzt, weiss ich nicht
11. Neides Zoll zahlt Nothung
12. Nun sing! Ich lausche dem Gesang
Total 69.06

Лог создания рипа:

Exact Audio Copy V1.0 beta 3 from 29. August 2011
Отчёт EAC об извлечении, выполненном 7. апреля 2015, 11:15
Richard Wagner / Siegfried - CD2
Дисковод: _NEC DVD_RW ND-3570A Adapter: 2 ID: 0
Режим чтения : Скоростной
Коррекция смещения при чтении : 48
Способность читать области Lead-in и Lead-out : Нет
Заполнение пропущенных сэмплов тишиной : Да
Удаление блоков с тишиной в начале и конце : Нет
При вычислениях CRC использовались нулевые сэмплы : Да
Интерфейс : Встроенный Win32-интерфейс для Win NT/2000
Выходной формат : Пользовательский кодировщик
Выбранный битрейт : 896 kBit/s
Качество : Высокий
Добавление ID3-тега : Нет
Утилита сжатия : C:\Program Files\FLAC Frontend\tools\flac.exe
Дополнительные параметры : -V -8 -T "Date=%year%" -T "Genre=%genre%" %source%
TOC извлечённого CD
Трек | Старт | Длительность | Начальный сектор | Конечный сектор
---------------------------------------------------------------------
1 | 0:00.00 | 5:06.23 | 0 | 22972
2 | 5:06.23 | 4:56.48 | 22973 | 45220
3 | 10:02.71 | 11:07.39 | 45221 | 95284
4 | 21:10.35 | 5:59.15 | 95285 | 122224
5 | 27:09.50 | 5:28.52 | 122225 | 146876
6 | 32:38.27 | 4:56.63 | 146877 | 169139
7 | 37:35.15 | 7:50.28 | 169140 | 204417
8 | 45:25.43 | 1:37.35 | 204418 | 211727
9 | 47:03.03 | 2:20.66 | 211728 | 222293
10 | 49:23.69 | 8:50.39 | 222294 | 262082
11 | 58:14.33 | 6:16.54 | 262083 | 290336
12 | 64:31.12 | 4:34.36 | 290337 | 310922
Характеристики диапазона извлечения и сообщения об ошибках
Выбранный диапазон
Имя файла N:\Wagner - Siegfried - Haenchen\CD2\Richard Wagner - Siegfried - CD2.wav
Пиковый уровень 83.7 %
Скорость извлечения 14.9 X
CRC теста 8C6CB6CE
CRC копии 11110DB4
Копирование... OK
Ошибок не произошло
AccurateRip: сводка
Трек 1 : извлечено точно (доверие 6) [E58C9590] (AR v2)
Трек 2 : извлечено точно (доверие 6) [6E5A8292] (AR v2)
Трек 3 : извлечено точно (доверие 6) [7835873D] (AR v2)
Трек 4 : извлечено точно (доверие 6) [BEC31313] (AR v2)
Трек 5 : извлечено точно (доверие 6) [2AE25BA7] (AR v2)
Трек 6 : извлечено точно (доверие 6) [06E882D6] (AR v2)
Трек 7 : извлечено точно (доверие 6) [E9ADF531] (AR v2)
Трек 8 : извлечено точно (доверие 6) [5C88FB2C] (AR v2)
Трек 9 : извлечено точно (доверие 6) [6C21FC94] (AR v2)
Трек 10 : извлечено точно (доверие 6) [EB192063] (AR v2)
Трек 11 : извлечено точно (доверие 6) [8D6E388A] (AR v2)
Трек 12 : извлечено точно (доверие 6) [76AFC7FD] (AR v2)
Все треки извлечены точно
Конец отчёта
==== Контрольная сумма отчёта 04214ACE46B73C9CC0757EE2BE0964F4412E293424A002CCE20D3AE9926720BE ====

CD3:Треклист:

Act III
01. Vorspiel
Scene 1
02. Wache, Wala! Wala! Erwach!
03. Stark ruft das Lied
04. Dir Unweisen ruf' ich ins Ohr
Scene 2
05. Dort seh' ich Siegfried nahn
06. Mein Voglein schwebte mir fort
07. Bleibst du mir stumm, storrischer Wicht?
08. Zieh hin! Ich kann dich nicht halten!
Scene 3
09. Selige Ode auf sonniger Hoh'!
10. Heil dir, Sonne! Heil dir, Licht!
11. So starb nicht meine Mutter?
12. Ewig war ich, ewig bin ich
Total 78.30

Лог создания рипа:

Exact Audio Copy V1.0 beta 3 from 29. August 2011
Отчёт EAC об извлечении, выполненном 7. апреля 2015, 11:59
Richard Wagner / Siegfried - CD3
Дисковод: Optiarc DVD RW AD-7260S Adapter: 0 ID: 1
Режим чтения : Достоверность
Использование точного потока : Да
Отключение кэша аудио : Да
Использование указателей C2 : Нет
Коррекция смещения при чтении : 48
Способность читать области Lead-in и Lead-out : Нет
Заполнение пропущенных сэмплов тишиной : Да
Удаление блоков с тишиной в начале и конце : Нет
При вычислениях CRC использовались нулевые сэмплы : Да
Интерфейс : Встроенный Win32-интерфейс для Win NT/2000
Выходной формат : Пользовательский кодировщик
Выбранный битрейт : 896 kBit/s
Качество : Высокий
Добавление ID3-тега : Нет
Утилита сжатия : C:\Program Files\FLAC Frontend\tools\flac.exe
Дополнительные параметры : -V -8 -T "Date=%year%" -T "Genre=%genre%" %source%
TOC извлечённого CD
Трек | Старт | Длительность | Начальный сектор | Конечный сектор
---------------------------------------------------------------------
1 | 0:00.00 | 2:22.51 | 0 | 10700
2 | 2:22.51 | 2:00.19 | 10701 | 19719
3 | 4:22.70 | 9:46.05 | 19720 | 63674
4 | 14:09.00 | 3:39.63 | 63675 | 80162
5 | 17:48.63 | 0:55.67 | 80163 | 84354
6 | 18:44.55 | 6:56.48 | 84355 | 115602
7 | 25:41.28 | 3:19.15 | 115603 | 130542
8 | 29:00.43 | 4:02.21 | 130543 | 148713
9 | 33:02.64 | 13:19.42 | 148714 | 208680
10 | 46:22.31 | 7:04.05 | 208681 | 240485
11 | 53:26.36 | 12:32.11 | 240486 | 296896
12 | 65:58.47 | 12:31.02 | 296897 | 353223
Характеристики диапазона извлечения и сообщения об ошибках
Выбранный диапазон
Имя файла N:\Wagner - Siegfried - Haenchen\CD3\Richard Wagner - Siegfried - CD3.wav
Пиковый уровень 86.7 %
Скорость извлечения 4.6 X
Качество диапазона 100.0 %
CRC теста 9362D90F
CRC копии 9362D90F
Копирование... OK
Ошибок не произошло
AccurateRip: сводка
Трек 1 : извлечено точно (доверие 6) [89134934] (AR v2)
Трек 2 : извлечено точно (доверие 6) [7CD0433F] (AR v2)
Трек 3 : извлечено точно (доверие 6) [684D37FC] (AR v2)
Трек 4 : извлечено точно (доверие 6) [FC210759] (AR v2)
Трек 5 : извлечено точно (доверие 6) [4465CD8D] (AR v2)
Трек 6 : извлечено точно (доверие 6) [FBAC3072] (AR v2)
Трек 7 : извлечено точно (доверие 6) [5E871563] (AR v2)
Трек 8 : извлечено точно (доверие 6) [A8EBC82F] (AR v2)
Трек 9 : извлечено точно (доверие 6) [14443CCB] (AR v2)
Трек 10 : извлечено точно (доверие 6) [47DC9B4F] (AR v2)
Трек 11 : извлечено точно (доверие 6) [3856EB9B] (AR v2)
Трек 12 : извлечено точно (доверие 6) [2A00AF46] (AR v2)
Все треки извлечены точно
Конец отчёта
==== Контрольная сумма отчёта B21CE5EBB7D376B832B0F3D644B55C612118A51AC240C28069F814F6B8759C9B ====

Исполнители:

Stig Andersen - Siegfried
Günter von Kannen - Alberich
Linda Watson - Brünnhilde
Mario Luperi - Fafner
Albert Dohmen - Wanderer
Anne Gjevang - Erda
Graham Clark - Mime
Robin Schlotz (Tölzer Knabenchor) - Stimme des Waldvogels
Nederlands Philarmonisch Orkest
Hartmut Haenchen
Das Rheingold
Götterdämmerung



Показать сообщения:    

Текущее время: 10-Дек 15:49

Часовой пояс: UTC + 3


Вы не можете начинать темы
Вы не можете отвечать на сообщения
Вы не можете редактировать свои сообщения
Вы не можете удалять свои сообщения
Вы не можете голосовать в опросах
Вы не можете прикреплять файлы к сообщениям
Вы не можете скачивать файлы