Удар властью. Убить депутата [2015, Документальный, политика, история, SATRip]


Статистика раздачи [Обновить пиров]
Размер:  485 MB   |    Зарегистрирован:  8 месяцев 20 дней   |    Скачан:  0 раз

Полного источника не было: Никогда

 
   
 
 
 

[Цитировать]

Удар властью. Убить депутата
Дата/Год выпуска: 2015
Страна: Россия, ТВЦ
Жанр: Документальный, политика, история
Продолжительность: 00:39:06
Перевод: Не требуется
Русские субтитры: нет
Описание: Убийство депутата Государственной Думы Сергея Скорочкина, гибель Сергея Юшенкова, за которой маячила тень Березовского, загадочная болезнь Юрия Щекочихина, слишком напоминающая убийство… Кто и почему расправляется с избранниками народа? Об этом смотрите в очередном фильме из цикла "Удар властью".
качество: SATRip
формат: AVI
Видео: 704x448 (1.57:1), 25 fps, XviD build 50 ~1596 kbps avg, 0.20 bit/pixel
Аудио: 48 kHz, MPEG Layer 3, 2 ch, ~128.00 kbps avg

MediaInfo

Complete name                            : C:\Users\Home\Desktop\временная\Удар властью.Убить депутата.2015.SATRip.avi
Format : AVI
Format/Info : Audio Video Interleave
File size : 485 MiB
Duration : 39mn 6s
Overall bit rate : 1 734 Kbps
Writing application : VirtualDubMod 1.5.10.3 | www.virtualdub-fr.org || (build 2550/release)
Writing library : VirtualDubMod build 2550/release
Video
ID : 0
Format : MPEG-4 Visual
Format profile : Advanced Simple@L5
Format settings, BVOP : 2
Format settings, QPel : No
Format settings, GMC : No warppoints
Format settings, Matrix : Default (MPEG)
Codec ID : XVID
Codec ID/Hint : XviD
Duration : 39mn 6s
Bit rate : 1 596 Kbps
Width : 704 pixels
Height : 448 pixels
Display aspect ratio : 16:10
Frame rate : 25.000 fps
Color space : YUV
Chroma subsampling : 4:2:0
Bit depth : 8 bits
Scan type : Progressive
Compression mode : Lossy
Bits/(Pixel*Frame) : 0.202
Stream size : 447 MiB (92%)
Writing library : XviD 1.2.1 (UTC 2008-12-04)
Audio
ID : 1
Format : MPEG Audio
Format version : Version 1
Format profile : Layer 3
Codec ID : 55
Codec ID/Hint : MP3
Duration : 39mn 6s
Bit rate mode : Constant
Bit rate : 128 Kbps
Channel count : 2 channels
Sampling rate : 48.0 KHz
Compression mode : Lossy
Stream size : 35.8 MiB (7%)
Alignment : Aligned on interleaves
Interleave, duration : 40 ms (1.00 video frame)
Interleave, preload duration : 504 ms
Writing library : LAME3.99r
Encoding settings : -m s -V 4 -q 2 -lowpass 17 -b 128

Скриншоты

[teatrix.ru].t20869.torrent 
Торрент: Зарегистрирован [ 2016-03-20 00:51 ] · 9AE6E76F89555BDCA93B8C2D8699BB879D0029BC

Скачать .torrent

Скачать

10 KB

Статус: проверено
Скачан: 0 раз
Размер: 485 MB
terms.php



Быстрый ответ

Имя:

      
Для отправки сообщений необходимо включить JavaScript
Показать сообщения:    

Текущее время: 09-Дек 16:29

Часовой пояс: UTC + 3


Вы можете начинать темы
Вы можете отвечать на сообщения
Вы не можете редактировать свои сообщения
Вы не можете удалять свои сообщения
Вы не можете голосовать в опросах
Вы не можете прикреплять файлы к сообщениям
Вы можете скачивать файлы