Звуковое Шоссе - Вашингтон, (Эпизод 2) 2014 / Foo Fighters: Sonic Highways - Washington D.C. (Episode 2) 2014 (Дэйв Грол/Dave Grohl) [24.10.2014, Документальный, музыкальный, HDTVRip-AVC]


Статистика раздачи [Обновить пиров]
Размер:  1 GB   |    Зарегистрирован:  8 месяцев 19 дней   |    Скачан:  1 раз

Полного источника не было: 1 месяц

 
   
 
 
 

[Цитировать]

Звуковое Шоссе - Вашингтон, (Эпизод 2) 2014 / Foo Fighters: Sonic Highways - Washington D.C. (Episode 2) 2014
Дата/Год выпуска: 24.10.2014
Страна: США
Жанр: Документальный, музыкальный
Продолжительность: 01:00:14
Перевод: Любительский (многоголосый закадровый)
Доп. инфо о переводе: Abandoned Studio
Русские субтитры: нет
Оригинальная аудиодорожка: нет
Режиссер: Дэйв Грол/Dave Grohl
Телеканал: HBO
Описание: Вашингтон, округ Колумбия, во многом город крайностей. Starland Vocal Band, Marvin Gaye, Duke Ellington, Nils Lofgren, Chuck Brown, Henry Rollins, Fugazi и Trouble Funk все выходцы из Вашингтона. В начале 70-х годов, стиль Go-Go появился здесь. Дэйв Грол общается с Тони Фишером о гоу-гоу, и исследует его происхождение с Чаком Брауном, бесспорным крестным отцом этого жанра. Он также беседует с Доном Зиентара, владелецем студии Inner Ear, которая по словам Грола "произвела весь саундтрек моей молодости”, а также с членами панк-группы Bad Brains и Иеном Маккаем, вокалистом Minor Threat и гитаристом Fugazi. Песня "Пир и Голод" записывается во время этого эпизода.
Сэмпл: Сэмпл
качество: HDRip
формат: MP4
Видео: Кодек: H.264 (NTSC), Разрешение кадра: 720 x 404 (16:9), Битрейт: 2 195 kbps, 23.976 fps
Аудио: Кодек: AAC, Битрейт: 192 kbps, Частота дискретизации: 48000 kHz, Stereo

MediaInfo

Complete name : /Users/applesoranjes/Desktop/Record/Sonic Highways/Episode 2/Episode 2_2.mp4
Format : MPEG-4
Codec ID : M4V
File size : 1.00 GiB
Duration : 1h 0mn
Overall bit rate mode : Variable
Overall bit rate : 2 387 Kbps
Encoded date : UTC 2015-04-07 14:18:59
Tagged date : UTC 2015-04-07 14:19:51
©TIM : 00:00:00:00
©TSC : 24000
©TSZ : 1001
Video
ID : 1
Format : AVC
Format/Info : Advanced Video Codec
Format profile : Main@L3.1
Format settings, CABAC : No
Format settings, ReFrames : 2 frames
Codec ID : avc1
Codec ID/Info : Advanced Video Coding
Duration : 1h 0mn
Source duration : 1h 0mn
Bit rate : 2 195 Kbps
Width : 720 pixels
Height : 404 pixels
Display aspect ratio : 16:9
Frame rate mode : Variable
Frame rate : 23.976 fps
Minimum frame rate : 23.976 fps
Maximum frame rate : 24.000 fps
Standard : NTSC
Color space : YUV
Chroma subsampling : 4:2:0
Bit depth : 8 bits
Scan type : Progressive
Bits/(Pixel*Frame) : 0.315
Stream size : 946 MiB (92%)
Source stream size : 946 MiB (92%)
Language : English
Encoded date : UTC 2015-04-07 14:18:59
Tagged date : UTC 2015-04-07 14:18:59
mdhd_Duration : 3614068
Audio
ID : 2
Format : AAC
Format/Info : Advanced Audio Codec
Format profile : LC
Codec ID : 40
Duration : 1h 0mn
Source duration : 1h 0mn
Bit rate mode : Variable
Bit rate : 192 Kbps
Maximum bit rate : 298 Kbps
Channel(s) : 2 channels
Channel positions : Front: L R
Sampling rate : 48.0 KHz
Compression mode : Lossy
Stream size : 81.6 MiB (8%)
Source stream size : 81.6 MiB (8%)
Language : English
Encoded date : UTC 2015-04-07 14:18:59
Tagged date : UTC 2015-04-07 14:18:59
mdhd_Duration : 3614122

Скриншоты

[teatrix.ru].t20870.torrent 
Торрент: Зарегистрирован [ 2016-03-20 00:51 ] · 50EAC5035D043F0B04EEDDBEAA143DF3C4E3A69C

Скачать .torrent

Скачать

11 KB

Статус: проверено
Скачан: 1 раз
Размер: 1 GB
terms.php



Быстрый ответ

Имя:

      
Для отправки сообщений необходимо включить JavaScript
Показать сообщения:    

Текущее время: 08-Дек 12:57

Часовой пояс: UTC + 3


Вы можете начинать темы
Вы можете отвечать на сообщения
Вы не можете редактировать свои сообщения
Вы не можете удалять свои сообщения
Вы не можете голосовать в опросах
Вы не можете прикреплять файлы к сообщениям
Вы можете скачивать файлы