(Pieces de clavecin & airs d'apres) D'Anglebert - Pieces de clavecin & airs d'apres M. De Lully [2CD's] (Celine Frisch, Cafe Zimmermann) - 2005, FLAC (tracks+.cue) lossless


 

[Цитировать]

D'Anglebert - Pieces de clavecin & airs d'apres M. De Lully

Жанр: Pieces de clavecin & airs d'apres
Страна-производитель диска: Made in Union Europeenne
Год издания диска: 2005
Издатель (лейбл): Alpha Productions
Номер по каталогу: Alpha 074
Дата записи: 2004
Аудиокодек: FLAC
Тип рипа: tracks+.cue
Битрейт аудио: lossless
Продолжительность: 72'01 + 43'59
Источник: релизер
сайт-источник/ник/другое: bzzz, melomaniacos
Наличие сканов в содержимом раздачи: да
Треклист:

скрытый текст

CD 1

скрытый текст

1. Suite en Sol Majeur: I. Prélude 2:10
2. Suite en Sol Majeur: II. Allemande 2:57
3. Suite en Sol Majeur: III. Courante et double de la Courante 1:36
4. Suite en Sol Majeur: IV. Seconde Courante 1:33
5. Suite en Sol Majeur: V. Troisième Courante 1:28
6. Suite en Sol Majeur: VI. Sarabande 3:24
7. Suite en Sol Majeur: VII. Gigue 1:54
8. Suite en Sol Majeur: VIII. Seconde Gigue 1:12
9. Suite en Sol Majeur: IX. Gaillarde 4:46
10. Suite en Sol Majeur: X. Chaconne Rondeau 3:22
11. Ouverture de Cadmus (Extrait de Cadmus) 2:49
12. Ritournelle des Fées de Roland (Extrait de Roland, Acte V, Scène 1) 1:19
13. Chaconne de Phaeton (Extrait de Phaeton, Acte II, Scène 5) 3:39
14. Suite en Sol Mineur: I. Prélude 1:48
15. Suite en Sol Mineur: II. Allemande 3:14
16. Suite en Sol Mineur: III. Courante 1:20
17. Suite en Sol Mineur: IV. Seconde Courante 1:38
18. Suite en Sol Mineur: V. Sarabande 3:04
19. Suite en Sol Mineur: VI. Sarabande Dieux des Enfers (Extrait du Ballet de la Naissance de Vénus, Acte II) 1:38
20. Suite en Sol Mineur: VII. Gigue 2:04
21. Suite en Sol Mineur: VIII. Gaillarde 3:49
22. Suite en Sol Mineur: IX. Passacaille 5:32
23. Ouverture de la Mascarade (Extrait de Le Carnaval) 4:05
24. Les sourdines d'Armide (Extrait d'Armide, Acte II, Scène 4) 2:29
25. Les songes agréables d'Atys (Extrait d'Atys, Acte III, Scène 4) 1:44
26. Air d'Apollon du Triomphe de l'Amour (Extrait de Le Triomphe de l'Amour) 2:38
27. Passacaille d'Armide (Extrait d'Armide, Acte V, Scène 2) 4:22
CD 2

скрытый текст

1. Ouverture de Cadmus (Extrait de Cadmus) 2:43
2. Ritournelle des Fées de Roland (Extrait de Roland, Acte V, Scène 1) 1:26
3. Petit air pour les mesmes (Extrait de Phaeton) 1:39
4. Premier air (Extrait d'Armide) 2:13
5. Second air (Extrait d'Armide) 2:29
6. Chaconne de Phaeton (Extrait de Phaeton, Acte II, Scène 5) 3:40
7. Ouverture (Extrait de Le Carnaval, Mascarade) 4:26
8. Les songes agréables d'Atys (Extrait d'Atys, Acte III, Scène 4) 2:05
9. Sarabande Dieux des Enfers (Extrait du Ballet de la Naissance de Vénus, Acte II, Scène 6) 3:44
10. Air d'Apollon du Triomphe de l'Amour (Extrait de Le Triomphe de l'Amour) 2:40
11. Passacaille d'Armide (Extrait d'Armide, Acte V, Scène 2) 4:33
12. Fugue grave pour l'orgue 2:49
13. 2e Fugue sur le mesme sujet 2:06
14. 3e Fugue 2:52
15. 4e Fugue 1:40
16. 5e Fugue 2:33

скрытый текст

CD1

скрытый текст

01. Suite en Sol Majeur - I. Prelude 2:10
02. - II. Allemande 2:57
03. - III. Courante et double de la Courante 1:36
04. - IV. Seconde Courante 1:33
05. - V. Troisieme Courante 1:28
06. - VI. Sarabande 3:24
07. - VII. Gigue 1:54
08. - VIII. Seconde Gigue 1:12
09. - IX. Gaillarde 4:46
10. - X. Chaconne Rondeau 3:22
11. Ouverture de Cadmus [Lully] 2:50
12. Ritournelle des Fees de Roland [Lully] 1:22
13. Chaconne de Phaeton [Lully] 3:40
14. Suite en Sol Mineur: I. Prelude 1:48
15. - II. Allemande 3:14
16. - III. Courante 1:20
17. - IV. Seconde Courante 1:38
18. - V. Sarabande 3:04
19. - VI. Sarabande Dieux des Enfers 1:38
20. - VII. Gigue 2:04
21. - VIII. Gaillarde 3:49
22. - IX. Passacaille 5:32
23. Ouverture de la Mascarade [Lully] 4:05
24. Les sourdines d'Armide [Lully] 2:29
25. Les songes agreables d'Atys [Lully] 1:44
26. Air d'Apollon du Triomphe de l'Amour [Lully] 2:38
27. Passacaille d'Armide [Lully] 4:20
Total time: 72'01"
CD2

скрытый текст

Les airs originaux de M. de Lully
01. Ouverture de Cadmus 2:44
02. Ritournelle des Fees de Roland 1:26
03. Petit air pour les mesmes (Extrait de Phaeton) 1:40
04. Premier air (Extrait d'Armide) 2:13
05. Second air (Extrait d'Armide) 2:29
06. Chaconne de Phaeton 3:36
07. Ouverture (Extrait de Le Carnaval) 4:27
08. Les songes agreables d'Atys 2:06
09. Sarabande Dieux des Enfers 3:44
10. Air d'Apollon du Triomphe de l'Amour 2:41
11. Passacaille d'Armide 4:26
Jean-Henry d'Anglebert
12. Fugues sur le mesme sujet - Fugue grave pour l'orgue 2:49
13. - 2e Fugue 2:06
14. - 3e Fugue 2:52
15. - 4e Fugue 1:40
16. - 5e Fugue 2:33
Total time: 43'59"
Исполнители:

скрытый текст

D'Anglebert
Pieces De Clavecin & Airs Apres M. De Lully
CD1
Celine Frisch, clavecin francais d'Emile Jobin d'apres Vincent Tibaut
Enregistre en juillet 2004 a la Cathedrale de Maguelone
CD2
1-11: Cafe Zimmermann
Pablo Valetti, violon et Konzertmeister
Paula Waisman, Rodolfo Marchesini, Manlio Paris, Nick Robinson, Laura Johnson, violon
Patricia Gagnon, Joelle Perdaens, Diane Chmela, alto
Antoine Ladrette, Nina Diehl, Etienne Mangot, violoncelle
Celine Frisch, clavecin
Patrick Beaugiraud, Jean-Marc Philippe, hautbois
Laurent Le Chenadec, basson
Eduardo Eguez, luth
Diana Baroni, Michael Form, Francois Nicolet, flutes
12-16: Celine Frisch, orgue historique de la Chapelle de l'hopital Charles Nicolle de Rouen
Enregistre en novembre 2004 a Rouen a la chapelle de l'hopital Charles Nicolle
Audio CD (January 1, 2005)
Лог создания рипа
CD1

скрытый текст

Exact Audio Copy V0.99 prebeta 4 from 23. January 2008
EAC extraction logfile from -
celine frisch - cafe zimmerman / d'anglebert - pieces de clavecin & airs apres m. de lully-01
Used drive : BENQ DVD DD DW1640 Adapter: 1 ID: 1
Read mode : Secure
Utilize accurate stream : Yes
Defeat audio cache : Yes
Make use of C2 pointers : No
Read offset correction : 618
Overread into Lead-In and Lead-Out : No
Fill up missing offset samples with silence : Yes
Delete leading and trailing silent blocks : No
Null samples used in CRC calculations : No
Used interface : Installed external ASPI interface
Gap handling : Appended to previous track
Used output format : Internal WAV Routines
Sample format : 44.100 Hz; 16 Bit; Stereo
TOC of the extracted CD
Track | Start | Length | Start sector | End sector
---------------------------------------------------------
1 | 0:00.00 | 2:10.63 | 0 | 9812
2 | 2:10.63 | 2:57.10 | 9813 | 23097
3 | 5:07.73 | 1:36.41 | 23098 | 30338
4 | 6:44.39 | 1:33.40 | 30339 | 37353
5 | 8:18.04 | 1:28.72 | 37354 | 44025
6 | 9:47.01 | 3:24.14 | 44026 | 59339
7 | 13:11.15 | 1:54.34 | 59340 | 67923
8 | 15:05.49 | 1:12.28 | 67924 | 73351
9 | 16:18.02 | 4:46.05 | 73352 | 94806
10 | 21:04.07 | 3:22.16 | 94807 | 109972
11 | 24:26.23 | 2:49.58 | 109973 | 122705
12 | 27:16.06 | 1:19.60 | 122706 | 128690
13 | 28:35.66 | 3:39.59 | 128691 | 145174
14 | 32:15.50 | 1:48.70 | 145175 | 153344
15 | 34:04.45 | 3:14.33 | 153345 | 167927
16 | 37:19.03 | 1:20.45 | 167928 | 173972
17 | 38:39.48 | 1:38.56 | 173973 | 181378
18 | 40:18.29 | 3:04.74 | 181379 | 195252
19 | 43:23.28 | 1:38.31 | 195253 | 202633
20 | 45:01.59 | 2:04.60 | 202634 | 211993
21 | 47:06.44 | 3:49.20 | 211994 | 229188
22 | 50:55.64 | 5:32.58 | 229189 | 254146
23 | 56:28.47 | 4:05.27 | 254147 | 272548
24 | 60:33.74 | 2:29.52 | 272549 | 283775
25 | 63:03.51 | 1:44.44 | 283776 | 291619
26 | 64:48.20 | 2:38.31 | 291620 | 303500
27 | 67:26.51 | 4:22.26 | 303501 | 323176
Track 1
Filename C:\out\eac\d'anglebert-frisch\d'anglebert-frisch-101-suite_en_sol_majeur,i-prelude.wav
Pre-gap length 0:00:02.00
Peak level 32.8 %
Track quality 99.9 %
Copy CRC 2D9F71FB
Track not present in AccurateRip database
Copy OK
Track 2
Filename C:\out\eac\d'anglebert-frisch\d'anglebert-frisch-102-suite_en_sol_majeur,ii-allemande.wav
Peak level 28.7 %
Track quality 100.0 %
Copy CRC DE7DE6FF
Track not present in AccurateRip database
Copy OK
Track 3
Filename C:\out\eac\d'anglebert-frisch\d'anglebert-frisch-103-suite_en_sol_majeur,iii-courante,double.wav
Peak level 37.7 %
Track quality 100.0 %
Copy CRC F64B76FC
Track not present in AccurateRip database
Copy OK
Track 4
Filename C:\out\eac\d'anglebert-frisch\d'anglebert-frisch-104-suite_en_sol_majeur,iv-seconde_courante.wav
Peak level 30.1 %
Track quality 100.0 %
Copy CRC E6E17B18
Track not present in AccurateRip database
Copy OK
Track 5
Filename C:\out\eac\d'anglebert-frisch\d'anglebert-frisch-105-suite_en_sol_majeur,v-troisieme_courante.wav
Peak level 47.2 %
Track quality 100.0 %
Copy CRC 208FE791
Track not present in AccurateRip database
Copy OK
Track 6
Filename C:\out\eac\d'anglebert-frisch\d'anglebert-frisch-106-suite_en_sol_majeur,vi-sarabande.wav
Peak level 23.5 %
Track quality 99.9 %
Copy CRC 5A40D4F0
Track not present in AccurateRip database
Copy OK
Track 7
Filename C:\out\eac\d'anglebert-frisch\d'anglebert-frisch-107-suite_en_sol_majeur,vii-gigue.wav
Peak level 51.2 %
Track quality 100.0 %
Copy CRC 24D446E0
Track not present in AccurateRip database
Copy OK
Track 8
Filename C:\out\eac\d'anglebert-frisch\d'anglebert-frisch-108-suite_en_sol_majeur,viii-seconde_gigue.wav
Peak level 27.2 %
Track quality 99.8 %
Copy CRC 1F9CEA77
Track not present in AccurateRip database
Copy OK
Track 9
Filename C:\out\eac\d'anglebert-frisch\d'anglebert-frisch-109-suite_en_sol_majeur,ix-gaillard.wav
Peak level 28.0 %
Track quality 100.0 %
Copy CRC E3377642
Track not present in AccurateRip database
Copy OK
Track 10
Filename C:\out\eac\d'anglebert-frisch\d'anglebert-frisch-110-suite_en_sol_majeur,x-chaconne_rondeau.wav
Peak level 35.4 %
Track quality 99.9 %
Copy CRC 0346400B
Track not present in AccurateRip database
Copy OK
Track 11
Filename C:\out\eac\d'anglebert-frisch\d'anglebert-frisch-111-[lully]-ouverture_de_cadmus-[cadmus].wav
Pre-gap length 0:00:05.28
Peak level 39.4 %
Track quality 100.0 %
Copy CRC 6CF33472
Track not present in AccurateRip database
Copy OK
Track 12
Filename C:\out\eac\d'anglebert-frisch\d'anglebert-frisch-112-[lully]-ritournelle_des_fees_de_rolland-[roland,acte_v,scene_1].wav
Peak level 21.3 %
Track quality 100.0 %
Copy CRC AD846CF5
Track not present in AccurateRip database
Copy OK
Track 13
Filename C:\out\eac\d'anglebert-frisch\d'anglebert-frisch-113-[lully]-chaconne_de_phaeton-[phaeton,acte_ii,scene_5].wav
Peak level 39.1 %
Track quality 100.0 %
Copy CRC D476FF40
Track not present in AccurateRip database
Copy OK
Track 14
Filename C:\out\eac\d'anglebert-frisch\d'anglebert-frisch-114-suite_en_sol_mineur,i-prelude.wav
Pre-gap length 0:00:03.44
Peak level 33.1 %
Track quality 99.9 %
Copy CRC 1DCCA34A
Track not present in AccurateRip database
Copy OK
Track 15
Filename C:\out\eac\d'anglebert-frisch\d'anglebert-frisch-115-suite_en_sol_mineur,ii-allemande.wav
Peak level 31.7 %
Track quality 100.0 %
Copy CRC D179C1FE
Track not present in AccurateRip database
Copy OK
Track 16
Filename C:\out\eac\d'anglebert-frisch\d'anglebert-frisch-116-suite_en_sol_mineur,iii-courante.wav
Peak level 36.7 %
Track quality 100.0 %
Copy CRC BACA167F
Track not present in AccurateRip database
Copy OK
Track 17
Filename C:\out\eac\d'anglebert-frisch\d'anglebert-frisch-117-suite_en_sol_mineur,iv-seconde_courante.wav
Peak level 33.7 %
Track quality 100.0 %
Copy CRC C6018E04
Track not present in AccurateRip database
Copy OK
Track 18
Filename C:\out\eac\d'anglebert-frisch\d'anglebert-frisch-118-suite_en_sol_mineur,v-sarabande.wav
Peak level 31.6 %
Track quality 100.0 %
Copy CRC 9322A744
Track not present in AccurateRip database
Copy OK
Track 19
Filename C:\out\eac\d'anglebert-frisch\d'anglebert-frisch-119-[lully]-saraband_dieux_des_enfres[ballet_de_la_naissance_de_venus,acte_ii,scene_6].wav
Peak level 27.7 %
Track quality 100.0 %
Copy CRC DCBA8A4F
Track not present in AccurateRip database
Copy OK
Track 20
Filename C:\out\eac\d'anglebert-frisch\d'anglebert-frisch-120-suite_en_sol_mineur,vi-gigue.wav
Peak level 44.7 %
Track quality 100.0 %
Copy CRC FCB1E85F
Track not present in AccurateRip database
Copy OK
Track 21
Filename C:\out\eac\d'anglebert-frisch\d'anglebert-frisch-121-suite_en_sol_mineur,vii-gaillarde.wav
Peak level 32.6 %
Track quality 100.0 %
Copy CRC 422A7936
Track not present in AccurateRip database
Copy OK
Track 22
Filename C:\out\eac\d'anglebert-frisch\d'anglebert-frisch-122-suite_en_sol_mineur,viii-passacaille.wav
Peak level 40.6 %
Track quality 100.0 %
Copy CRC FEAE5105
Track not present in AccurateRip database
Copy OK
Track 23
Filename C:\out\eac\d'anglebert-frisch\d'anglebert-frisch-123-[lully]-ouverture_de_la_mascarade-[le_carnival].wav
Pre-gap length 0:00:03.68
Peak level 39.1 %
Track quality 99.9 %
Copy CRC 88A39202
Track not present in AccurateRip database
Copy OK
Track 24
Filename C:\out\eac\d'anglebert-frisch\d'anglebert-frisch-124-[lully]-les_sourdines_d'armide,acte_ii,scene_4].wav
Peak level 21.9 %
Track quality 100.0 %
Copy CRC 4E45A411
Track not present in AccurateRip database
Copy OK
Track 25
Filename C:\out\eac\d'anglebert-frisch\d'anglebert-frisch-125-[lully]-les_songes_agreables_d'atys,acte_iii,scene_4].wav
Peak level 31.5 %
Track quality 99.8 %
Copy CRC C9BED423
Track not present in AccurateRip database
Copy OK
Track 26
Filename C:\out\eac\d'anglebert-frisch\d'anglebert-frisch-126-[lully]-air_d'apollon_du_triomphe_de_l'amour-[le_triomphe_de_l'amour].wav
Peak level 36.6 %
Track quality 99.9 %
Copy CRC 145E938A
Track not present in AccurateRip database
Copy OK
Track 27
Filename C:\out\eac\d'anglebert-frisch\d'anglebert-frisch-127-[lully]-passacaille_d'armide-[armide,acte_v,scene_11].wav
Peak level 41.5 %
Track quality 99.9 %
Copy CRC 7598AECE
Track not present in AccurateRip database
Copy OK
None of the tracks are present in the AccurateRip database
No errors occurred
End of status report
CD2

скрытый текст

Exact Audio Copy V0.99 prebeta 4 from 23. January 2008
EAC extraction logfile from -
celine frisch - cafe zimmerman / d'anglebert - pieces de clavecin & airs apres m. de lully-02
Used drive : BENQ DVD DD DW1640 Adapter: 1 ID: 1
Read mode : Secure
Utilize accurate stream : Yes
Defeat audio cache : Yes
Make use of C2 pointers : No
Read offset correction : 618
Overread into Lead-In and Lead-Out : No
Fill up missing offset samples with silence : Yes
Delete leading and trailing silent blocks : No
Null samples used in CRC calculations : No
Used interface : Installed external ASPI interface
Gap handling : Appended to previous track
Used output format : Internal WAV Routines
Sample format : 44.100 Hz; 16 Bit; Stereo
TOC of the extracted CD
Track | Start | Length | Start sector | End sector
---------------------------------------------------------
1 | 0:00.00 | 2:43.72 | 0 | 12296
2 | 2:43.72 | 1:26.31 | 12297 | 18777
3 | 4:10.28 | 1:39.64 | 18778 | 26266
4 | 5:50.17 | 2:13.41 | 26267 | 36282
5 | 8:03.58 | 2:29.02 | 36283 | 47459
6 | 10:32.60 | 3:40.40 | 47460 | 63999
7 | 14:13.25 | 4:26.52 | 64000 | 84001
8 | 18:40.02 | 2:05.49 | 84002 | 93425
9 | 20:45.51 | 3:44.24 | 93426 | 110249
10 | 24:30.00 | 2:40.54 | 110250 | 122303
11 | 27:10.54 | 4:33.10 | 122304 | 142788
12 | 31:43.64 | 2:49.57 | 142789 | 155520
13 | 34:33.46 | 2:06.61 | 155521 | 165031
14 | 36:40.32 | 2:52.38 | 165032 | 177969
15 | 39:32.70 | 1:40.40 | 177970 | 185509
16 | 41:13.35 | 2:33.08 | 185510 | 196992
Track 1
Filename C:\out\eac\d'anglebert-frisch\d'anglebert,lully-frisch-201-lully-ouverture_de_cadmus[1673].wav
Pre-gap length 0:00:02.00
Peak level 97.7 %
Track quality 100.0 %
Copy CRC 79A31780
Track not present in AccurateRip database
Copy OK
Track 2
Filename C:\out\eac\d'anglebert-frisch\d'anglebert,lully-frisch-202-lully-ritournelle_des_fees_de_roland[1685].wav
Peak level 36.8 %
Track quality 100.0 %
Copy CRC 9EF8BCFD
Track not present in AccurateRip database
Copy OK
Track 3
Filename C:\out\eac\d'anglebert-frisch\d'anglebert,lully-frisch-203-lully-petit_air_pour_les_mesmes[phaeton,1683].wav
Pre-gap length 0:00:00.01
Peak level 86.6 %
Track quality 100.0 %
Copy CRC E006132E
Track not present in AccurateRip database
Copy OK
Track 4
Filename C:\out\eac\d'anglebert-frisch\d'anglebert,lully-frisch-204-lully-premier_air[armide].wav
Peak level 40.5 %
Track quality 100.0 %
Copy CRC E1AC1142
Track not present in AccurateRip database
Copy OK
Track 5
Filename C:\out\eac\d'anglebert-frisch\d'anglebert,lully-frisch-205-lully-second_air[armide].wav
Peak level 42.1 %
Track quality 100.0 %
Copy CRC 3EBEF5E1
Track not present in AccurateRip database
Copy OK
Track 6
Filename C:\out\eac\d'anglebert-frisch\d'anglebert,lully-frisch-206-lully-chaconne_de_phaeton.wav
Peak level 100.0 %
Track quality 100.0 %
Copy CRC 25CC0E14
Track not present in AccurateRip database
Copy OK
Track 7
Filename C:\out\eac\d'anglebert-frisch\d'anglebert,lully-frisch-207-lully-ouverture[le_carnival,mascarade,1668].wav
Pre-gap length 0:00:03.98
Peak level 73.8 %
Track quality 100.0 %
Copy CRC 79519575
Track not present in AccurateRip database
Copy OK
Track 8
Filename C:\out\eac\d'anglebert-frisch\d'anglebert,lully-frisch-208-lully-les_songs_agreables_d'atyts[1676].wav
Peak level 37.1 %
Track quality 100.0 %
Copy CRC CEB9BE1B
Track not present in AccurateRip database
Copy OK
Track 9
Filename C:\out\eac\d'anglebert-frisch\d'anglebert,lully-frisch-209-lully-sarabande_dieux_des_enfers_du_ballet_de_la_naissance_de_venus[1665].wav
Peak level 47.8 %
Track quality 100.0 %
Copy CRC 9CBFBB89
Track not present in AccurateRip database
Copy OK
Track 10
Filename C:\out\eac\d'anglebert-frisch\d'anglebert,lully-frisch-210-lully-air_d'apollon_du_triomphe_de_l'amour.wav
Peak level 70.6 %
Track quality 99.9 %
Copy CRC D19E56BB
Track not present in AccurateRip database
Copy OK
Track 11
Filename C:\out\eac\d'anglebert-frisch\d'anglebert,lully-frisch-211-lully-passacaille_d'armide[1686].wav
Peak level 79.4 %
Track quality 100.0 %
Copy CRC 84C45C2E
Track not present in AccurateRip database
Copy OK
Track 12
Filename C:\out\eac\d'anglebert-frisch\d'anglebert,lully-frisch-212-d'anglebert-fugue_grave_pour_l'orgue-.wav
Pre-gap length 0:00:06.89
Peak level 62.5 %
Track quality 100.0 %
Copy CRC D48A447C
Track not present in AccurateRip database
Copy OK
Track 13
Filename C:\out\eac\d'anglebert-frisch\d'anglebert,lully-frisch-213-d'anglebert-2nd_fugue_sur_le_mesme_sujet.wav
Peak level 62.8 %
Track quality 99.9 %
Copy CRC 0D58A8F9
Track not present in AccurateRip database
Copy OK
Track 14
Filename C:\out\eac\d'anglebert-frisch\d'anglebert,lully-frisch-214-d'anglebert-3rd_fugue.wav
Peak level 27.0 %
Track quality 100.0 %
Copy CRC 2043C009
Track not present in AccurateRip database
Copy OK
Track 15
Filename C:\out\eac\d'anglebert-frisch\d'anglebert,lully-frisch-215-d'anglebert-4th_fugue.wav
Peak level 37.6 %
Track quality 100.0 %
Copy CRC E2B8C9F6
Track not present in AccurateRip database
Copy OK
Track 16
Filename C:\out\eac\d'anglebert-frisch\d'anglebert,lully-frisch-216-d'anglebert-5th_fugue.wav
Peak level 91.7 %
Track quality 99.9 %
Copy CRC 7C4327B5
Track not present in AccurateRip database
Copy OK
None of the tracks are present in the AccurateRip database
No errors occurred
End of status report
Содержание индексной карты (.CUE)
CD1

скрытый текст

REM DATE 2004
REM DISCID 8210D51B
REM COMMENT "ExactAudioCopy v0.99pb4"
PERFORMER "celine frisch - cafe zimmerman"
TITLE "d'anglebert - pieces de clavecin & airs apres m. de lully-01"
FILE "d'anglebert-frisch-101-suite_en_sol_majeur,i-prelude.wav" WAVE
TRACK 01 AUDIO
TITLE "suite_en_sol_majeur,i-prelude"
PERFORMER "celine frisch - cafe zimmerman"
INDEX 01 00:00:00
FILE "d'anglebert-frisch-102-suite_en_sol_majeur,ii-allemande.wav" WAVE
TRACK 02 AUDIO
TITLE "suite_en_sol_majeur,ii-allemande"
PERFORMER "celine frisch - cafe zimmerman"
FLAGS DCP
INDEX 01 00:00:00
FILE "d'anglebert-frisch-103-suite_en_sol_majeur,iii-courante,double.wav" WAVE
TRACK 03 AUDIO
TITLE "suite_en_sol_majeur,iii-courante,double"
PERFORMER "celine frisch - cafe zimmerman"
FLAGS DCP
INDEX 01 00:00:00
FILE "d'anglebert-frisch-104-suite_en_sol_majeur,iv-seconde_courante.wav" WAVE
TRACK 04 AUDIO
TITLE "suite_en_sol_majeur,iv-seconde_courante"
PERFORMER "celine frisch - cafe zimmerman"
FLAGS DCP
INDEX 01 00:00:00
FILE "d'anglebert-frisch-105-suite_en_sol_majeur,v-troisieme_courante.wav" WAVE
TRACK 05 AUDIO
TITLE "suite_en_sol_majeur,v-troisieme_courante"
PERFORMER "celine frisch - cafe zimmerman"
FLAGS DCP
INDEX 01 00:00:00
FILE "d'anglebert-frisch-106-suite_en_sol_majeur,vi-sarabande.wav" WAVE
TRACK 06 AUDIO
TITLE "suite_en_sol_majeur,vi-sarabande"
PERFORMER "celine frisch - cafe zimmerman"
FLAGS DCP
INDEX 01 00:00:00
FILE "d'anglebert-frisch-107-suite_en_sol_majeur,vii-gigue.wav" WAVE
TRACK 07 AUDIO
TITLE "suite_en_sol_majeur,vii-gigue"
PERFORMER "celine frisch - cafe zimmerman"
FLAGS DCP
INDEX 01 00:00:00
FILE "d'anglebert-frisch-108-suite_en_sol_majeur,viii-seconde_gigue.wav" WAVE
TRACK 08 AUDIO
TITLE "suite_en_sol_majeur,viii-seconde_gigue"
PERFORMER "celine frisch - cafe zimmerman"
FLAGS DCP
INDEX 01 00:00:00
FILE "d'anglebert-frisch-109-suite_en_sol_majeur,ix-gaillard.wav" WAVE
TRACK 09 AUDIO
TITLE "suite_en_sol_majeur,ix-gaillard"
PERFORMER "celine frisch - cafe zimmerman"
FLAGS DCP
INDEX 01 00:00:00
FILE "d'anglebert-frisch-110-suite_en_sol_majeur,x-chaconne_rondeau.wav" WAVE
TRACK 10 AUDIO
TITLE "suite_en_sol_majeur,x-chaconne_rondeau"
PERFORMER "celine frisch - cafe zimmerman"
FLAGS DCP
INDEX 01 00:00:00
TRACK 11 AUDIO
TITLE "[lully]-ouverture_de_cadmus-[cadmus]"
PERFORMER "celine frisch - cafe zimmerman"
FLAGS DCP
INDEX 00 03:16:70
FILE "d'anglebert-frisch-111-[lully]-ouverture_de_cadmus-[cadmus].wav" WAVE
INDEX 01 00:00:00
FILE "d'anglebert-frisch-112-[lully]-ritournelle_des_fees_de_rolland-[roland,acte_v,scene_1].wav" WAVE
TRACK 12 AUDIO
TITLE "[lully]-ritournelle_des_fees_de_rolland-[roland,acte_v,scene_1]"
PERFORMER "celine frisch - cafe zimmerman"
FLAGS DCP
INDEX 01 00:00:00
FILE "d'anglebert-frisch-113-[lully]-chaconne_de_phaeton-[phaeton,acte_ii,scene_5].wav" WAVE
TRACK 13 AUDIO
TITLE "[lully]-chaconne_de_phaeton-[phaeton,acte_ii,scene_5]"
PERFORMER "celine frisch - cafe zimmerman"
FLAGS DCP
INDEX 01 00:00:00
TRACK 14 AUDIO
TITLE "suite_en_sol_mineur,i-prelude"
PERFORMER "celine frisch - cafe zimmerman"
FLAGS DCP
INDEX 00 03:36:26
FILE "d'anglebert-frisch-114-suite_en_sol_mineur,i-prelude.wav" WAVE
INDEX 01 00:00:00
FILE "d'anglebert-frisch-115-suite_en_sol_mineur,ii-allemande.wav" WAVE
TRACK 15 AUDIO
TITLE "suite_en_sol_mineur,ii-allemande"
PERFORMER "celine frisch - cafe zimmerman"
FLAGS DCP
INDEX 01 00:00:00
FILE "d'anglebert-frisch-116-suite_en_sol_mineur,iii-courante.wav" WAVE
TRACK 16 AUDIO
TITLE "suite_en_sol_mineur,iii-courante"
PERFORMER "celine frisch - cafe zimmerman"
FLAGS DCP
INDEX 01 00:00:00
FILE "d'anglebert-frisch-117-suite_en_sol_mineur,iv-seconde_courante.wav" WAVE
TRACK 17 AUDIO
TITLE "suite_en_sol_mineur,iv-seconde_courante"
PERFORMER "celine frisch - cafe zimmerman"
FLAGS DCP
INDEX 01 00:00:00
FILE "d'anglebert-frisch-118-suite_en_sol_mineur,v-sarabande.wav" WAVE
TRACK 18 AUDIO
TITLE "suite_en_sol_mineur,v-sarabande"
PERFORMER "celine frisch - cafe zimmerman"
FLAGS DCP
INDEX 01 00:00:00
FILE "d'anglebert-frisch-119-[lully]-saraband_dieux_des_enfres[ballet_de_la_naissance_de_venus,acte_ii,scene_6].wav" WAVE
TRACK 19 AUDIO
TITLE "[lully]-saraband_dieux_des_enfres[ballet_de_la_naissance_de_venus,acte_ii,sce..."
PERFORMER "celine frisch - cafe zimmerman"
FLAGS DCP
INDEX 01 00:00:00
FILE "d'anglebert-frisch-120-suite_en_sol_mineur,vi-gigue.wav" WAVE
TRACK 20 AUDIO
TITLE "suite_en_sol_mineur,vi-gigue"
PERFORMER "celine frisch - cafe zimmerman"
FLAGS DCP
INDEX 01 00:00:00
FILE "d'anglebert-frisch-121-suite_en_sol_mineur,vii-gaillarde.wav" WAVE
TRACK 21 AUDIO
TITLE "suite_en_sol_mineur,vii-gaillarde"
PERFORMER "celine frisch - cafe zimmerman"
FLAGS DCP
INDEX 01 00:00:00
FILE "d'anglebert-frisch-122-suite_en_sol_mineur,viii-passacaille.wav" WAVE
TRACK 22 AUDIO
TITLE "suite_en_sol_mineur,viii-passacaille"
PERFORMER "celine frisch - cafe zimmerman"
FLAGS DCP
INDEX 01 00:00:00
TRACK 23 AUDIO
TITLE "[lully]-ouverture_de_la_mascarade-[le_carnival]"
PERFORMER "celine frisch - cafe zimmerman"
FLAGS DCP
INDEX 00 05:29:07
FILE "d'anglebert-frisch-123-[lully]-ouverture_de_la_mascarade-[le_carnival].wav" WAVE
INDEX 01 00:00:00
FILE "d'anglebert-frisch-124-[lully]-les_sourdines_d'armide,acte_ii,scene_4].wav" WAVE
TRACK 24 AUDIO
TITLE "[lully]-les_sourdines_d'armide,acte_ii,scene_4]"
PERFORMER "celine frisch - cafe zimmerman"
FLAGS DCP
INDEX 01 00:00:00
FILE "d'anglebert-frisch-125-[lully]-les_songes_agreables_d'atys,acte_iii,scene_4].wav" WAVE
TRACK 25 AUDIO
TITLE "[lully]-les_songes_agreables_d'atys,acte_iii,scene_4]"
PERFORMER "celine frisch - cafe zimmerman"
FLAGS DCP
INDEX 01 00:00:00
FILE "d'anglebert-frisch-126-[lully]-air_d'apollon_du_triomphe_de_l'amour-[le_triomphe_de_l'amour].wav" WAVE
TRACK 26 AUDIO
TITLE "[lully]-air_d'apollon_du_triomphe_de_l'amour-[le_triomphe_de_l'amour]"
PERFORMER "celine frisch - cafe zimmerman"
FLAGS DCP
INDEX 01 00:00:00
FILE "d'anglebert-frisch-127-[lully]-passacaille_d'armide-[armide,acte_v,scene_11].wav" WAVE
TRACK 27 AUDIO
TITLE "[lully]-passacaille_d'armide-[armide,acte_v,scene_11]"
PERFORMER "celine frisch - cafe zimmerman"
FLAGS DCP
INDEX 01 00:00:00
CD2

скрытый текст

REM DATE 2004
REM DISCID C40A4210
REM COMMENT "ExactAudioCopy v0.99pb4"
PERFORMER "celine frisch - cafe zimmerman"
TITLE "d'anglebert - pieces de clavecin & airs apres m. de lully-02"
FILE "d'anglebert,lully-frisch-201-lully-ouverture_de_cadmus[1673].wav" WAVE
TRACK 01 AUDIO
TITLE "lully-ouverture_de_cadmus[1673]"
PERFORMER "celine frisch - cafe zimmerman"
INDEX 01 00:00:00
FILE "d'anglebert,lully-frisch-202-lully-ritournelle_des_fees_de_roland[1685].wav" WAVE
TRACK 02 AUDIO
TITLE "lully-ritournelle_des_fees_de_roland[1685]"
PERFORMER "celine frisch - cafe zimmerman"
FLAGS DCP
INDEX 01 00:00:00
TRACK 03 AUDIO
TITLE "lully-petit_air_pour_les_mesmes[phaeton,1683]"
PERFORMER "celine frisch - cafe zimmerman"
FLAGS DCP
INDEX 00 01:26:30
FILE "d'anglebert,lully-frisch-203-lully-petit_air_pour_les_mesmes[phaeton,1683].wav" WAVE
INDEX 01 00:00:00
FILE "d'anglebert,lully-frisch-204-lully-premier_air[armide].wav" WAVE
TRACK 04 AUDIO
TITLE "lully-premier_air[armide]"
PERFORMER "celine frisch - cafe zimmerman"
FLAGS DCP
INDEX 01 00:00:00
FILE "d'anglebert,lully-frisch-205-lully-second_air[armide].wav" WAVE
TRACK 05 AUDIO
TITLE "lully-second_air[armide]"
PERFORMER "celine frisch - cafe zimmerman"
FLAGS DCP
INDEX 01 00:00:00
FILE "d'anglebert,lully-frisch-206-lully-chaconne_de_phaeton.wav" WAVE
TRACK 06 AUDIO
TITLE "lully-chaconne_de_phaeton"
PERFORMER "celine frisch - cafe zimmerman"
FLAGS DCP
INDEX 01 00:00:00
TRACK 07 AUDIO
TITLE "lully-ouverture[le_carnival,mascarade,1668]"
PERFORMER "celine frisch - cafe zimmerman"
FLAGS DCP
INDEX 00 03:36:41
FILE "d'anglebert,lully-frisch-207-lully-ouverture[le_carnival,mascarade,1668].wav" WAVE
INDEX 01 00:00:00
FILE "d'anglebert,lully-frisch-208-lully-les_songs_agreables_d'atyts[1676].wav" WAVE
TRACK 08 AUDIO
TITLE "lully-les_songs_agreables_d'atyts[1676]"
PERFORMER "celine frisch - cafe zimmerman"
FLAGS DCP
INDEX 01 00:00:00
FILE "d'anglebert,lully-frisch-209-lully-sarabande_dieux_des_enfers_du_ballet_de_la_naissance_de_venus[1665].wav" WAVE
TRACK 09 AUDIO
TITLE "lully-sarabande_dieux_des_enfers_du_ballet_de_la_naissance_de_venus[1665]"
PERFORMER "celine frisch - cafe zimmerman"
FLAGS DCP
INDEX 01 00:00:00
FILE "d'anglebert,lully-frisch-210-lully-air_d'apollon_du_triomphe_de_l'amour.wav" WAVE
TRACK 10 AUDIO
TITLE "lully-air_d'apollon_du_triomphe_de_l'amour"
PERFORMER "celine frisch - cafe zimmerman"
FLAGS DCP
INDEX 01 00:00:00
FILE "d'anglebert,lully-frisch-211-lully-passacaille_d'armide[1686].wav" WAVE
TRACK 11 AUDIO
TITLE "lully-passacaille_d'armide[1686]"
PERFORMER "celine frisch - cafe zimmerman"
FLAGS DCP
INDEX 01 00:00:00
TRACK 12 AUDIO
TITLE "d'anglebert-fugue_grave_pour_l'orgue\"
PERFORMER "celine frisch - cafe zimmerman"
FLAGS DCP
INDEX 00 04:26:18
FILE "d'anglebert,lully-frisch-212-d'anglebert-fugue_grave_pour_l'orgue-.wav" WAVE
INDEX 01 00:00:00
FILE "d'anglebert,lully-frisch-213-d'anglebert-2nd_fugue_sur_le_mesme_sujet.wav" WAVE
TRACK 13 AUDIO
TITLE "d'anglebert-2nd_fugue_sur_le_mesme_sujet"
PERFORMER "celine frisch - cafe zimmerman"
FLAGS DCP
INDEX 01 00:00:00
FILE "d'anglebert,lully-frisch-214-d'anglebert-3rd_fugue.wav" WAVE
TRACK 14 AUDIO
TITLE "d'anglebert-3rd_fugue"
PERFORMER "celine frisch - cafe zimmerman"
FLAGS DCP
INDEX 01 00:00:00
FILE "d'anglebert,lully-frisch-215-d'anglebert-4th_fugue.wav" WAVE
TRACK 15 AUDIO
TITLE "d'anglebert-4th_fugue"
PERFORMER "celine frisch - cafe zimmerman"
FLAGS DCP
INDEX 01 00:00:00
FILE "d'anglebert,lully-frisch-216-d'anglebert-5th_fugue.wav" WAVE
TRACK 16 AUDIO
TITLE "d'anglebert-5th_fugue"
PERFORMER "celine frisch - cafe zimmerman"
FLAGS DCP
INDEX 01 00:00:00



Показать сообщения:    

Текущее время: 05-Дек 01:23

Часовой пояс: UTC + 3


Вы не можете начинать темы
Вы не можете отвечать на сообщения
Вы не можете редактировать свои сообщения
Вы не можете удалять свои сообщения
Вы не можете голосовать в опросах
Вы не можете прикреплять файлы к сообщениям
Вы не можете скачивать файлы