(Classical) Wolfgang Amadeus Mozart - The Wind Serenades; 4 Divertimenti - Amadeus Winds, Christopher Hogwood - 2CD - 1998, FLAC (image+.cue) lossless


 

[Цитировать]

Wolfgang Amadeus Mozart - The Wind Serenades; 4 Divertimenti - Amadeus Winds, Christopher Hogwood
Жанр: Classical
Год издания диска: 1998
Издатель (лейбл): Decca
Дата записи: 1985, 1987, 1989
Аудиокодек: FLAC
Тип рипа: image+.cue
Битрейт аудио: lossless
Продолжительность: 152:06
Источник: собственный рип
Наличие сканов в содержимом раздачи: да
Треклист:
Wolfgang Amadeus Mozart (1756-1791)
CD1
[1]-[7] Serenade in B flat major 'Gran Partita', K361/370a*
[8]-[12] Serenade in E flat major, K375
CD2
[1]-[4] Serenade in C minor, K388/384a
[5]-[8] Divertimento in B flat major, K240
[9]-[12] Divertimento in E flat major, K252/240a
[13]-[15] Divertimento in F major, K253
[16]-[19] Divertimento in B flat major, K270
Исполнители:
Amadeus Winds
conducted by Christopher Hogwood*

Лог создания рипа: CD1

Exact Audio Copy V1.0 beta 3 from 29. August 2011
EAC extraction logfile from 22. March 2015, 2:03
Amadeus Winds / Mozart - The Wind Serenades - CD1
Used drive : HL-DT-STDVDRAM GU70N Adapter: 0 ID: 0
Read mode : Secure
Utilize accurate stream : Yes
Defeat audio cache : Yes
Make use of C2 pointers : No
Read offset correction : 48
Overread into Lead-In and Lead-Out : No
Fill up missing offset samples with silence : Yes
Delete leading and trailing silent blocks : No
Null samples used in CRC calculations : Yes
Used interface : Native Win32 interface for Win NT & 2000
Used output format : User Defined Encoder
Selected bitrate : 128 kBit/s
Quality : High
Add ID3 tag : No
Command line compressor : C:\Program Files (x86)\Exact Audio Copy\Flac\flac.exe
Additional command line options : -V -8 -T "Date=%year%" -T "Genre=%genre%" %source%
TOC of the extracted CD
Track | Start | Length | Start sector | End sector
---------------------------------------------------------
1 | 0:00.00 | 8:44.39 | 0 | 39338
2 | 8:44.39 | 8:05.69 | 39339 | 75782
3 | 16:50.33 | 5:19.40 | 75783 | 99747
4 | 22:09.73 | 4:39.61 | 99748 | 120733
5 | 26:49.59 | 6:38.10 | 120734 | 150593
6 | 33:27.69 | 9:42.28 | 150594 | 194271
7 | 43:10.22 | 3:23.53 | 194272 | 209549
8 | 46:34.00 | 10:54.59 | 209550 | 258658
9 | 57:28.59 | 4:40.16 | 258659 | 279674
10 | 62:09.00 | 5:47.45 | 279675 | 305744
11 | 67:56.45 | 3:39.14 | 305745 | 322183
12 | 71:35.59 | 3:44.33 | 322184 | 339016
Range status and errors
Selected range
Filename C:\temp\Mozart - The Wind Serenades - Amadeus Winds, Hogwood\CD1\Mozart - The Wind Serenades - CD1.wav
Peak level 90.3 %
Extraction speed 2.3 X
Range quality 99.9 %
Test CRC 4A92D3FD
Copy CRC 4A92D3FD
Copy OK
No errors occurred
AccurateRip summary
Track 1 accurately ripped (confidence 6) [BDE3A490] (AR v2)
Track 2 accurately ripped (confidence 6) [952397F7] (AR v2)
Track 3 accurately ripped (confidence 6) [93F0EF79] (AR v2)
Track 4 accurately ripped (confidence 6) [95130D32] (AR v2)
Track 5 accurately ripped (confidence 6) [867D6B00] (AR v2)
Track 6 accurately ripped (confidence 6) [7ACCEE88] (AR v2)
Track 7 accurately ripped (confidence 6) [8249D70F] (AR v2)
Track 8 accurately ripped (confidence 6) [C3C743C1] (AR v2)
Track 9 accurately ripped (confidence 6) [0F438A44] (AR v2)
Track 10 accurately ripped (confidence 6) [AA1BA9BE] (AR v2)
Track 11 accurately ripped (confidence 6) [47BCDE54] (AR v2)
Track 12 accurately ripped (confidence 6) [6476CEF3] (AR v2)
All tracks accurately ripped
End of status report
==== Log checksum 86C9A854A07D644467D07617F9EB1651CF608FB6E3327607110DEEDDF3473C0C ====

Лог создания рипа: CD2

Exact Audio Copy V1.0 beta 3 from 29. August 2011
EAC extraction logfile from 22. March 2015, 10:13
Amadeus Winds / Mozart - The Wind Serenades - CD2
Used drive : HL-DT-STDVDRAM GU70N Adapter: 0 ID: 0
Read mode : Secure
Utilize accurate stream : Yes
Defeat audio cache : Yes
Make use of C2 pointers : No
Read offset correction : 48
Overread into Lead-In and Lead-Out : No
Fill up missing offset samples with silence : Yes
Delete leading and trailing silent blocks : No
Null samples used in CRC calculations : Yes
Used interface : Native Win32 interface for Win NT & 2000
Used output format : User Defined Encoder
Selected bitrate : 128 kBit/s
Quality : High
Add ID3 tag : No
Command line compressor : C:\Program Files (x86)\Exact Audio Copy\Flac\flac.exe
Additional command line options : -V -8 -T "Date=%year%" -T "Genre=%genre%" %source%
TOC of the extracted CD
Track | Start | Length | Start sector | End sector
---------------------------------------------------------
1 | 0:00.00 | 10:56.48 | 0 | 49247
2 | 10:56.48 | 4:15.66 | 49248 | 68438
3 | 15:12.39 | 5:03.09 | 68439 | 91172
4 | 20:15.48 | 6:47.27 | 91173 | 121724
5 | 27:03.00 | 4:13.60 | 121725 | 140759
6 | 31:16.60 | 2:42.40 | 140760 | 152949
7 | 33:59.25 | 2:34.00 | 152950 | 164499
8 | 36:33.25 | 3:54.25 | 164500 | 182074
9 | 40:27.50 | 4:06.00 | 182075 | 200524
10 | 44:33.50 | 3:06.63 | 200525 | 214537
11 | 47:40.38 | 2:10.25 | 214538 | 224312
12 | 49:50.63 | 1:33.12 | 224313 | 231299
13 | 51:24.00 | 8:21.50 | 231300 | 268924
14 | 59:45.50 | 2:55.25 | 268925 | 282074
15 | 62:41.00 | 1:55.50 | 282075 | 290749
16 | 64:36.50 | 5:35.45 | 290750 | 315919
17 | 70:12.20 | 2:02.18 | 315920 | 325087
18 | 72:14.38 | 2:46.37 | 325088 | 337574
19 | 75:01.00 | 1:45.00 | 337575 | 345449
Range status and errors
Selected range
Filename C:\temp\Mozart - The Wind Serenades - Amadeus Winds, Hogwood\CD2\Mozart - The Wind Serenades - CD2.wav
Peak level 99.9 %
Extraction speed 2.3 X
Range quality 100.0 %
Test CRC EAEB439E
Copy CRC EAEB439E
Copy OK
No errors occurred
AccurateRip summary
Track 1 accurately ripped (confidence 8) [5D5A094F] (AR v2)
Track 2 accurately ripped (confidence 7) [348AD5FD] (AR v2)
Track 3 accurately ripped (confidence 7) [7B013F8F] (AR v2)
Track 4 accurately ripped (confidence 7) [34CF06C9] (AR v2)
Track 5 accurately ripped (confidence 7) [F42E319B] (AR v2)
Track 6 accurately ripped (confidence 7) [2167FD3A] (AR v2)
Track 7 accurately ripped (confidence 7) [EE79194C] (AR v2)
Track 8 accurately ripped (confidence 7) [565B18EC] (AR v2)
Track 9 accurately ripped (confidence 7) [6E5F6D2C] (AR v2)
Track 10 accurately ripped (confidence 7) [A9129BA4] (AR v2)
Track 11 accurately ripped (confidence 7) [1AE20249] (AR v2)
Track 12 accurately ripped (confidence 7) [93B20B30] (AR v2)
Track 13 accurately ripped (confidence 7) [30682A1A] (AR v2)
Track 14 accurately ripped (confidence 7) [8D5956D6] (AR v2)
Track 15 accurately ripped (confidence 7) [817DC07F] (AR v2)
Track 16 accurately ripped (confidence 7) [259DB5B0] (AR v2)
Track 17 accurately ripped (confidence 7) [D6866858] (AR v2)
Track 18 accurately ripped (confidence 7) [6CFE3DA0] (AR v2)
Track 19 accurately ripped (confidence 8) [8C3328E4] (AR v2)
All tracks accurately ripped
End of status report
==== Log checksum 3D90B7C923ADB188F365986763BB3BE837B7E577F06BB1B5ECC300B40AA0E0F1 ====



Показать сообщения:    

Текущее время: 03-Дек 01:21

Часовой пояс: UTC + 3


Вы не можете начинать темы
Вы не можете отвечать на сообщения
Вы не можете редактировать свои сообщения
Вы не можете удалять свои сообщения
Вы не можете голосовать в опросах
Вы не можете прикреплять файлы к сообщениям
Вы не можете скачивать файлы