Воскресенье за городом / Un dimanche a la campagne (Бертран Тавернье / Bertrand Tavernier) [1984, Франция, Драма, BDRip] AVO (Либергал) + Original (Fr) + Sub (Rus, Eng)


 

[Цитировать]

Воскресенье за городом / Un dimanche a la campagne- Страна: Франция
Жанр: Драма
Год выпуска: 1984
Продолжительность: 01:34:16-Перевод: Авторский (одноголосый закадровый) [Григорий Либергал]
Cубтитры: русские, английские (внешние, srt)
Оригинальная аудиодорожка: французский-Режиссер: Бертран Тавернье / Bertrand Tavernier-В ролях: Луи Дюкре, Сабина Азема, Мишель Омон, Женевьева Мниш, Квентин Ожье, Моник Шометт, Клод Винтер, Паскаль Виньяль,Жан-Роже Мило, Марк Перрон, Жак Пуатрено-Описание: Начало прошлого века. В загородном особняке мсье Ладмираля, влюбленного в импрессионизм старого художника, собираются его взрослые дети — дочь Ирен и сын Гонзаг с женой и детьми. Сегодня их ждет традиционный воскресный обед, прогулки по парку, разговоры, признания и прощание…-Sample | IMDB | КиноПоиск-Тип релиза: BDRip [исх. BDRemux 1080p спасибо Core_soul]

Формат видео: AVI-Видео: 720x432 (1.67:1), 24.000 fps, XviD build 50, 1827 kbps avg, 0.24 bit/pixel
Аудио 1: 48 kHz, AC3 Dolby Digital, 2/0 (L,R) ch, 192.00 kbps avg [Russian_AVO]
Аудио 2: 48 kHz, AC3 Dolby Digital, 2/0 (L,R) ch, 192.00 kbps avg [Original_Fr]-Релиз группы: -

MediaInfo

General
Complete name : D:\Мои релизы\Un Dimanche a la Campagne_BDRip_RG_All_Films\Un Dimanche a la Campagne_BDRip_RG_All_Films.avi
Format : AVI
Format/Info : Audio Video Interleave
File size : 1.47 GiB
Duration : 1h 34mn
Overall bit rate : 2 226 Kbps
Writing application : VirtualDubMod 1.6.0.0 SURROUND (build 2560/release)
Writing library : VirtualDubMod build 2560/release
Video
ID : 0
Format : MPEG-4 Visual
Format profile : Advanced Simple@L5
Format settings, BVOP : Yes
Format settings, QPel : No
Format settings, GMC : No warppoints
Format settings, Matrix : Custom
Codec ID : XVID
Codec ID/Hint : XviD
Duration : 1h 34mn
Bit rate : 1 828 Kbps
Width : 720 pixels
Height : 432 pixels
Display aspect ratio : 1.667
Frame rate : 24.000 fps
Color space : YUV
Chroma subsampling : 4:2:0
Bit depth : 8 bits
Scan type : Progressive
Compression mode : Lossy
Bits/(Pixel*Frame) : 0.245
Stream size : 1.20 GiB (82%)
Writing library : XviD 1.2.1 (UTC 2008-12-04)
Audio #1
ID : 1
Format : AC-3
Format/Info : Audio Coding 3
Mode extension : CM (complete main)
Codec ID : 2000
Duration : 1h 34mn
Bit rate mode : Constant
Bit rate : 192 Kbps
Channel(s) : 2 channels
Channel positions : Front: L R
Sampling rate : 48.0 KHz
Bit depth : 16 bits
Compression mode : Lossy
Stream size : 129 MiB (9%)
Alignment : Split accross interleaves
Interleave, duration : 42 ms (1.00 video frame)
Interleave, preload duration : 500 ms
Audio #2
ID : 2
Format : AC-3
Format/Info : Audio Coding 3
Mode extension : CM (complete main)
Codec ID : 2000
Duration : 1h 34mn
Bit rate mode : Constant
Bit rate : 192 Kbps
Channel(s) : 2 channels
Channel positions : Front: L R
Sampling rate : 48.0 KHz
Bit depth : 16 bits
Compression mode : Lossy
Stream size : 129 MiB (9%)
Alignment : Split accross interleaves
Interleave, duration : 42 ms (1.00 video frame)
Interleave, preload duration : 500 ms

Скриншоты




Показать сообщения:    

Текущее время: 10-Дек 11:57

Часовой пояс: UTC + 3


Вы не можете начинать темы
Вы не можете отвечать на сообщения
Вы не можете редактировать свои сообщения
Вы не можете удалять свои сообщения
Вы не можете голосовать в опросах
Вы не можете прикреплять файлы к сообщениям
Вы не можете скачивать файлы