(Classical) Сергей Прокофьев - Скифская сюита • Сюита из оперы «Любовь к трeм апельсинам» • Симфония № 5 / Sergei Prokofiev - Scythian Suite • The Love for Three Oranges Suite • Symphony No. 5 (Antal Dorati, 1957/59) 1991, FLAC (tracks+.cue) lossless


 

[Цитировать]

Sergei Prokofiev | Сергей Прокофьев
(1891–1953)



Сюита из оперы «Любовь к трëм апельсинам»
Скифская сюита | Симфония № 5*

Scythian Suite | The Love for Three Oranges Suite | Symphony No. 5*


London Symphony OrchestraMinneapolis Symphony Orchestra*
Antal Doráti conductor


Жанр: Classical / Symphony / Orchestral
Даты записи: 1957, 1959
Формат записи: ADD, Stereo
Год издания диска: 1991
Издатель (лейбл): Mercury
Номер по каталогу: 432 753-2
Аудиокодек: FLAC
Тип рипа: tracks+.cue
Битрейт аудио: lossless
Продолжительность: 1:14:48
Наличие сканов в содержимом раздачи: да (front/back)
Источник: What.CD
Релизёр: Amosquu


Tracklist / Треклист
Скифская сюита (Scythian Suite), Op. 20 - 19:34
I. Поклонение Велесу и Але (Adoration of Veles and Ala) - 5:48
  • II. Чужбог и пляска нечисти (The Evil God and the Dance of the Pagan Monsters) - 3:10
  • III. Ночь (Night) - 5:46
  • IV. Поход Лоллия и шествие Солнца (Lolly's Departure and the Sun's Procession) - 4:50
    Сюита из оперы «Любовь к трëм апельсинам» (The Love for Three Oranges Suite), Op. 33bis - 15:56
    I. Чудаки (Les Ridicules) - 3:05
  • II. Сцена в аду (Scène infernale) - 3:33
  • III. Марш (Marche) - 1:37
  • IV. Скерцо (Scherzo) - 1:36
  • V. Принц и принцесса (Le Prince et la Princesse) - 3:48
  • VI. Побег (La Fuite) - 2:17
    London Symphony Orchestra
    Recorded: Watford Town Hall, England, July 1957

    Симфония № 5 си-бемоль мажор (Symphony No. 5 in B flat major), Op. 100 - 39:18
    I. Andante - 11:05
  • II. Allegro marcato - 7:53
  • III. Adagio - 10:11
  • IV. Allegro giocoso - 10:09
    Minneapolis Symphony Orchestra
    Recorded: Northrop Auditorium, Minneapolis, USA, November 1959


    -

    EAC log / Отчёт EAC

    Exact Audio Copy V1.0 beta 3 from 29. August 2011
    EAC extraction logfile from 12. February 2015, 17:29
    Prokovier, Sergei: / Prokofiev: Scythian Suite/Love for 3 Oranges Suite/Sym 5; Dorati/LSO/Minneapolis SO
    Used drive : hp DVD A DH16ACSHR Adapter: 0 ID: 0
    Read mode : Secure
    Utilize accurate stream : Yes
    Defeat audio cache : Yes
    Make use of C2 pointers : No
    Read offset correction : 6
    Overread into Lead-In and Lead-Out : No
    Fill up missing offset samples with silence : Yes
    Delete leading and trailing silent blocks : No
    Null samples used in CRC calculations : Yes
    Used interface : Native Win32 interface for Win NT & 2000
    Gap handling : Appended to previous track
    Used output format : User Defined Encoder
    Selected bitrate : 128 kBit/s
    Quality : High
    Add ID3 tag : Yes
    Command line compressor : C:\Program Files (x86)\Exact Audio Copy\Flac\flac.exe
    Additional command line options : -8 -V -T "ARTIST=%artist%" -T "TITLE=%title%" -T "ALBUM=%albumtitle%" -T "DATE=%year%" -T "TRACKNUMBER=%tracknr1%" -T "GENRE=%genre%" -T "PERFORMER=%albuminterpret%" -T "COMPOSER=%composer%" %haslyrics%--tag-from-file=LYRICS="%lyricsfile%"%haslyrics% -T "ALBUMARTIST=%albumartist%" -T "DISCNUMBER=%cdnumber%" -T "TOTALDISCS=%totalcds%" -T "TOTALTRACKS=%numtracks%" -T "COMMENT=%comment%" %source% -o %dest%
    TOC of the extracted CD
    Track | Start | Length | Start sector | End sector
    ---------------------------------------------------------
    1 | 0:00.32 | 5:47.45 | 32 | 26101
    2 | 5:48.02 | 3:09.60 | 26102 | 40336
    3 | 8:57.62 | 5:46.05 | 40337 | 66291
    4 | 14:43.67 | 4:50.20 | 66292 | 88061
    5 | 19:34.12 | 3:04.38 | 88062 | 101899
    6 | 22:38.50 | 3:33.25 | 101900 | 117899
    7 | 26:12.00 | 1:36.45 | 117900 | 125144
    8 | 27:48.45 | 1:36.10 | 125145 | 132354
    9 | 29:24.55 | 3:47.47 | 132355 | 149426
    10 | 33:12.27 | 2:17.30 | 149427 | 159731
    11 | 35:29.57 | 11:04.68 | 159732 | 209599
    12 | 46:34.50 | 7:53.25 | 209600 | 245099
    13 | 54:28.00 | 10:11.02 | 245100 | 290926
    14 | 64:39.02 | 10:09.08 | 290927 | 336609
    Track 1
    Filename C:\EAC Rips\Prokofiev - Scythian Suite (1991) [FLAC]\01 - Prokofiev, Sergei- Scythian Suite Op 20 - 001 Invocation to Veles and Ala.wav
    Pre-gap length 0:00:02.42
    Peak level 100.0 %
    Extraction speed 3.7 X
    Track quality 99.9 %
    Test CRC F17A761E
    Copy CRC F17A761E
    Accurately ripped (confidence 10) [8F6F34BE] (AR v2)
    Copy OK
    Track 2
    Filename C:\EAC Rips\Prokofiev - Scythian Suite (1991) [FLAC]\02 - Prokofiev, Sergei- Scythian Suite Op 20 - 002 The Evil God and Dance of the Pagan Monsters.wav
    Peak level 100.0 %
    Extraction speed 4.4 X
    Track quality 100.0 %
    Test CRC CE99F02A
    Copy CRC CE99F02A
    Accurately ripped (confidence 10) [5BBABFBD] (AR v2)
    Copy OK
    Track 3
    Filename C:\EAC Rips\Prokofiev - Scythian Suite (1991) [FLAC]\03 - Prokofiev, Sergei- Scythian Suite Op 20 - 003 Night.wav
    Peak level 59.2 %
    Extraction speed 5.1 X
    Track quality 100.0 %
    Test CRC D0191434
    Copy CRC D0191434
    Accurately ripped (confidence 10) [72F47E32] (AR v2)
    Copy OK
    Track 4
    Filename C:\EAC Rips\Prokofiev - Scythian Suite (1991) [FLAC]\04 - Prokofiev, Sergei- Scythian Suite Op 20 - 004 Lolli's Pursuit of the Evil God, and Sunrise.wav
    Peak level 90.3 %
    Extraction speed 5.4 X
    Track quality 100.0 %
    Test CRC 645C7B49
    Copy CRC 645C7B49
    Accurately ripped (confidence 10) [7A448601] (AR v2)
    Copy OK
    Track 5
    Filename C:\EAC Rips\Prokofiev - Scythian Suite (1991) [FLAC]\05 - Prokofiev, Sergei- Suite from the ''Love for Three Oranges'' Op 33a - 001 Les Ridicules.wav
    Peak level 99.3 %
    Extraction speed 5.4 X
    Track quality 100.0 %
    Test CRC AF468CA3
    Copy CRC AF468CA3
    Accurately ripped (confidence 10) [D704754D] (AR v2)
    Copy OK
    Track 6
    Filename C:\EAC Rips\Prokofiev - Scythian Suite (1991) [FLAC]\06 - Prokofiev, Sergei- Suite from the ''Love for Three Oranges'' Op 33a - 002 Scene infernale.wav
    Peak level 100.0 %
    Extraction speed 5.6 X
    Track quality 100.0 %
    Test CRC 390DEC02
    Copy CRC 390DEC02
    Accurately ripped (confidence 10) [414B3BE3] (AR v2)
    Copy OK
    Track 7
    Filename C:\EAC Rips\Prokofiev - Scythian Suite (1991) [FLAC]\07 - Prokofiev, Sergei- Suite from the ''Love for Three Oranges'' Op 33a - 003 Marche.wav
    Peak level 100.0 %
    Extraction speed 3.3 X
    Track quality 99.8 %
    Test CRC 9D95CCAF
    Copy CRC 9D95CCAF
    Accurately ripped (confidence 10) [35A8AC79] (AR v2)
    Copy OK
    Track 8
    Filename C:\EAC Rips\Prokofiev - Scythian Suite (1991) [FLAC]\08 - Prokofiev, Sergei- Suite from the ''Love for Three Oranges'' Op 33a - 004 Scherzo.wav
    Peak level 90.9 %
    Extraction speed 5.1 X
    Track quality 100.0 %
    Test CRC B620FB21
    Copy CRC B620FB21
    Accurately ripped (confidence 10) [38E981D2] (AR v2)
    Copy OK
    Track 9
    Filename C:\EAC Rips\Prokofiev - Scythian Suite (1991) [FLAC]\09 - Prokofiev, Sergei- Suite from the ''Love for Three Oranges'' Op 33a - 005 Le Prince et la Princesse.wav
    Peak level 42.3 %
    Extraction speed 6.2 X
    Track quality 100.0 %
    Test CRC 6A6A2CC1
    Copy CRC 6A6A2CC1
    Accurately ripped (confidence 10) [7EAEA140] (AR v2)
    Copy OK
    Track 10
    Filename C:\EAC Rips\Prokofiev - Scythian Suite (1991) [FLAC]\10 - Prokofiev, Sergei- Suite from the ''Love for Three Oranges'' Op 33a - 006 La Fuite.wav
    Peak level 95.4 %
    Extraction speed 5.8 X
    Track quality 100.0 %
    Test CRC A33D947B
    Copy CRC A33D947B
    Accurately ripped (confidence 10) [84BF224F] (AR v2)
    Copy OK
    Track 11
    Filename C:\EAC Rips\Prokofiev - Scythian Suite (1991) [FLAC]\11 - Prokofiev, Sergei- Sym No 5 Op 100 - 001 Andante.wav
    Peak level 100.0 %
    Extraction speed 7.4 X
    Track quality 100.0 %
    Test CRC 19D9452C
    Copy CRC 19D9452C
    Accurately ripped (confidence 10) [3D563F6F] (AR v2)
    Copy OK
    Track 12
    Filename C:\EAC Rips\Prokofiev - Scythian Suite (1991) [FLAC]\12 - Prokofiev, Sergei- Sym No 5 Op 100 - 002 Allegro marcato.wav
    Peak level 100.0 %
    Extraction speed 7.8 X
    Track quality 100.0 %
    Test CRC 3EF5FCA2
    Copy CRC 3EF5FCA2
    Accurately ripped (confidence 10) [421CF3C2] (AR v2)
    Copy OK
    Track 13
    Filename C:\EAC Rips\Prokofiev - Scythian Suite (1991) [FLAC]\13 - Prokofiev, Sergei- Sym No 5 Op 100 - 003 Adagio.wav
    Peak level 88.6 %
    Extraction speed 8.4 X
    Track quality 100.0 %
    Test CRC 206D2BCE
    Copy CRC 206D2BCE
    Accurately ripped (confidence 10) [F1FEE75E] (AR v2)
    Copy OK
    Track 14
    Filename C:\EAC Rips\Prokofiev - Scythian Suite (1991) [FLAC]\14 - Prokofiev, Sergei- Sym No 5 Op 100 - 004 Allegro giocoso.wav
    Peak level 100.0 %
    Extraction speed 8.9 X
    Track quality 100.0 %
    Test CRC 1C9BCE28
    Copy CRC 1C9BCE28
    Accurately ripped (confidence 10) [4715C656] (AR v2)
    Copy OK
    All tracks accurately ripped
    No errors occurred
    End of status report
    ==== Log checksum BEBFDD30E3251EC11AB4817E7EA895D10CF0DCBC974EB581D6BE1EF77D252138 ====

    auCDtect Task Manager log / Отчёт auCDtect Task Manager

    -----------------------
    DON'T MODIFY THIS FILE
    -----------------------
    PERFORMER: auCDtect Task Manager, ver. 1.5.1RC3 build 1.5.1.4
    Copyright (c) 2008-2010 y-soft. All rights reserved
    ANALYZER: auCDtect: CD records authenticity detector, version 0.8.2
    Copyright (c) 2004 Oleg Berngardt. All rights reserved.
    Copyright (c) 2004 Alexander Djourik. All rights reserved.
    FILE: 12 - Symphony No. 5 in B flat major, Op. 100 - II. Allegro marcato.flac
    Size: 42800594 Hash: 5F795F046DBE5D91C1B6F7CFD1CAB26F Accuracy: -m0
    Conclusion: CDDA 100%
    Signature: AEC6BDECBDF76A798A0BCB2FDA66B6A362DB0160
    FILE: 11 - Symphony No. 5 in B flat major, Op. 100 - I. Andante.flac
    Size: 66035182 Hash: F23E5F6884A372E90735BA83D6BEFDE6 Accuracy: -m0
    Conclusion: CDDA 100%
    Signature: A63AF89EA08C196E9E8380471D7448F34E8842C6
    FILE: 10 - The Love for Three Oranges Suite, Op. 33bis - VI. La Fuite.flac
    Size: 12968916 Hash: E979F75F4DA6AF6E0C81302D7BCA4A23 Accuracy: -m0
    Conclusion: CDDA 100%
    Signature: BDFEF21FD2222F92B4FF4CE4EDC9CA08D6C610D3
    FILE: 09 - The Love for Three Oranges Suite, Op. 33bis - V. Le Prince et la Princesse.flac
    Size: 18624095 Hash: 8EC2E5BEC7B6EC8ED07611E78F4E95FD Accuracy: -m0
    Conclusion: CDDA 100%
    Signature: 780A6B5210CF830E3BD2E1FCC97FF04D8F9C5C0E
    FILE: 08 - The Love for Three Oranges Suite, Op. 33bis - IV. Scherzo.flac
    Size: 8513087 Hash: 01EFAABCF301C920A0F9B269F80EDE79 Accuracy: -m0
    Conclusion: CDDA 100%
    Signature: B2D3E0488DCD818F2FAE6F95FCE1E6EAF26E7BF0
    FILE: 07 - The Love for Three Oranges Suite, Op. 33bis - III. Marche.flac
    Size: 9296323 Hash: 810C933FCE806D12A40A42D2CC41E1D6 Accuracy: -m0
    Conclusion: CDDA 100%
    Signature: C27B27B7AE7485A4EF543549C8A3148A59602346
    FILE: 06 - The Love for Three Oranges Suite, Op. 33bis - II. Scene infernale.flac
    Size: 19757063 Hash: F5322C8D22243D6792FCD6CBBD1AF9E2 Accuracy: -m0
    Conclusion: CDDA 99%
    Signature: 8D5F4FC02361D1DB053DBCC9929B0FC96A712517
    FILE: 05 - The Love for Three Oranges Suite, Op. 33bis - I. Les Ridicules.flac
    Size: 15774654 Hash: 749CED09616954F3DE95B21FE9A41976 Accuracy: -m0
    Conclusion: CDDA 100%
    Signature: B6B36ECC3DADF2731729FDC70C342DDEECA7D1D7
    FILE: 04 - Scythian Suite, Op. 20 - IV. Lolly's Departure and the Sun's Procession.flac
    Size: 27068232 Hash: 574A899D96A236A178AB5FC62EEBF1FB Accuracy: -m0
    Conclusion: CDDA 100%
    Signature: F877A90807371E2C33D4F21B8416BFA69FE4DFF3
    FILE: 03 - Scythian Suite, Op. 20 - III. Night.flac
    Size: 26717001 Hash: D5BC4D8EAF2E86BBAC6B68B0A0696ACE Accuracy: -m0
    Conclusion: CDDA 100%
    Signature: E483CE0379EA57A29344EF2A3B1EDE2BAF2001D2
    FILE: 02 - Scythian Suite, Op. 20 - II. The Evil God and the Dance of the Pagan Monsters.flac
    Size: 18379294 Hash: 036325174A0F9D78D5567F5BE03A9025 Accuracy: -m0
    Conclusion: CDDA 100%
    Signature: 220A63B038176DCB6945EEBEF7B406B1006F8E19
    FILE: 01 - Scythian Suite, Op. 20 - I. Adoration of Veles and Ala.flac
    Size: 31880581 Hash: 20C02F2D2CA1743F1D9ECA114B6B99CF Accuracy: -m0
    Conclusion: CDDA 100%
    Signature: A7CA187B26D2DD2A9A3FDB6C61803B27EDEC595B
    FILE: 14 - Symphony No. 5 in B flat major, Op. 100 - IV. Allegro giocoso.flac
    Size: 54448630 Hash: 630DE0419CC3528D52FD7FD8F5AB9677 Accuracy: -m0
    Conclusion: CDDA 100%
    Signature: F9943B91C186345D24A17916EC452AB880C311CF
    FILE: 13 - Symphony No. 5 in B flat major, Op. 100 - III. Adagio.flac
    Size: 55381665 Hash: 7F2FAB3E28D8CB3F5B29F8B35262576C Accuracy: -m0
    Conclusion: CDDA 99%
    Signature: 0EDD32A9A10CAC502A74F0519124797DDD6C6764

    CUETools log / Отчёт CUETools

    [CUETools log; Date: 08.04.2015 15:41:36; Version: 2.1.4]
    Pregap length 00:00:32.
    [AccurateRip ID: 001fe231-015895ca-d211880e] found.
    Track [ CRC | V2 ] Status
    01 [29b3fe88|8f6f34be] (014+010/171) Accurately ripped
    02 [0905af77|5bbabfbd] (014+010/172) Accurately ripped
    03 [5d6be928|72f47e32] (014+010/173) Accurately ripped
    04 [66704079|7a448601] (014+010/174) Accurately ripped
    05 [6d40aeb0|d704754d] (014+010/174) Accurately ripped
    06 [baf18bb4|414b3be3] (014+010/174) Accurately ripped
    07 [5a11b4db|35a8ac79] (014+010/173) Accurately ripped
    08 [5a1ee457|38e981d2] (014+010/175) Accurately ripped
    09 [7a7caa53|7eaea140] (014+010/175) Accurately ripped
    10 [427ab433|84bf224f] (014+010/175) Accurately ripped
    11 [66fed7a6|3d563f6f] (014+010/173) Accurately ripped
    12 [b4f42556|421cf3c2] (014+010/174) Accurately ripped
    13 [554f87f5|f1fee75e] (012+010/168) Accurately ripped
    14 [b4f8022d|4715c656] (013+010/166) Accurately ripped
    Offsetted by -2669:
    01 [560e3d0f] (004/171) Accurately ripped
    02 [01a980af] (004/172) Accurately ripped
    03 [1cacec1c] (004/173) Accurately ripped
    04 [3d0b0a78] (004/174) Accurately ripped
    05 [30ae4550] (005/174) Accurately ripped
    06 [a0515639] (005/174) Accurately ripped
    07 [1dc45a4e] (005/173) Accurately ripped
    08 [94a963d0] (005/175) Accurately ripped
    09 [f1ec0f6b] (005/175) Accurately ripped
    10 [7c4b3033] (005/175) Accurately ripped
    11 [47ce9802] (004/173) Accurately ripped
    12 [b5154ac8] (004/174) Accurately ripped
    13 [a4596814] (004/168) Accurately ripped
    14 [afe53baa] (004/166) Accurately ripped
    Offsetted by -2583:
    01 [23181150] (011/171) Accurately ripped
    02 [3e1122c4] (011/172) Accurately ripped
    03 [fea01578] (011/173) Accurately ripped
    04 [6a6151bb] (011/174) Accurately ripped
    05 [e05e5230] (011/174) Accurately ripped
    06 [4e5191d9] (010/174) Accurately ripped
    07 [381c53a5] (010/173) Accurately ripped
    08 [351fb683] (011/175) Accurately ripped
    09 [ccb4f265] (011/175) Accurately ripped
    10 [6b838632] (011/175) Accurately ripped
    11 [bea4f3a1] (011/173) Accurately ripped
    12 [73b6b83d] (011/174) Accurately ripped
    13 [0f3811a5] (011/168) Accurately ripped
    14 [854ee737] (010/166) Accurately ripped
    Offsetted by -1317:
    01 [b63a1abb] (003/171) Accurately ripped
    02 [4b505d79] (003/172) Accurately ripped
    03 [d5eb2c4b] (003/173) Accurately ripped
    04 [09473f6e] (003/174) Accurately ripped
    05 [a1c0cdc1] (003/174) Accurately ripped
    06 [9c2c6d07] (003/174) Accurately ripped
    07 [d751291b] (003/173) Accurately ripped
    08 [7d9a58e0] (003/175) Accurately ripped
    09 [7e503cc6] (003/175) Accurately ripped
    10 [ebd2c4c1] (003/175) Accurately ripped
    11 [91f40f8f] (003/173) Accurately ripped
    12 [3ca3eb7b] (003/174) Accurately ripped
    13 [54503583] (003/168) Accurately ripped
    14 [11fd2cab] (003/166) Accurately ripped
    Offsetted by -1305:
    01 [ae35b56b] (005/171) Accurately ripped
    02 [5b533258] (005/172) Accurately ripped
    03 [100d7989] (005/173) Accurately ripped
    04 [8268da8b] (005/174) Accurately ripped
    05 [0709c38c] (005/174) Accurately ripped
    06 [e0d4bd60] (005/174) Accurately ripped
    07 [cd467377] (005/173) Accurately ripped
    08 [4d194ad1] (005/175) Accurately ripped
    09 [5d88bdd6] (005/175) Accurately ripped
    10 [5f135c11] (005/175) Accurately ripped
    11 [056ff4e6] (005/173) Accurately ripped
    12 [18cd05de] (005/174) Accurately ripped
    13 [6ba64425] (005/168) Accurately ripped
    14 [d2e54108] (005/166) Accurately ripped
    Offsetted by -641:
    01 [82223e23] (006/171) Accurately ripped
    02 [ecac1ad3] (006/172) Accurately ripped
    03 [41c41f76] (006/173) Accurately ripped
    04 [8dac0746] (006/174) Accurately ripped
    05 [f88b564f] (006/174) Accurately ripped
    06 [f2bc57f9] (006/174) Accurately ripped
    07 [54d14985] (006/173) Accurately ripped
    08 [329f0252] (006/175) Accurately ripped
    09 [295c65da] (006/175) Accurately ripped
    10 [d6b00d1b] (006/175) Accurately ripped
    11 [6db9b2ed] (005/173) Accurately ripped
    12 [5cc38392] (006/174) Accurately ripped
    13 [e48533d4] (006/168) Accurately ripped
    14 [b9ff1c5e] (005/166) Accurately ripped
    Offsetted by -1981:
    01 [16b9c9ea] (000/171) No match (V2 was not tested)
    02 [ea2d5696] (000/172) No match (V2 was not tested)
    03 [2d5033df] (000/173) No match (V2 was not tested)
    04 [45e60b80] (000/174) No match (V2 was not tested)
    05 [6468c39f] (000/174) No match (V2 was not tested)
    06 [33e8b5a5] (000/174) No match (V2 was not tested)
    07 [926f28c3] (000/173) No match (V2 was not tested)
    08 [33d7af7b] (000/175) No match (V2 was not tested)
    09 [96d5c870] (000/175) No match (V2 was not tested)
    10 [29f44eaa] (000/175) No match (V2 was not tested)
    11 [5b20c20d] (000/173) No match (V2 was not tested)
    12 [28566940] (000/174) No match (V2 was not tested)
    13 [fb6aef38] (000/168) No match (V2 was not tested)
    14 [ab7a1efb] (000/166) No match (V2 was not tested)
    Track Peak [ CRC32 ] [W/O NULL] [ LOG ]
    -- 100,0 [30B6255A] [69BD508B]
    01 100,0 [F17A761E] [5593DE6C] CRC32
    02 100,0 [CE99F02A] [9174CE30] CRC32
    03 59,2 [D0191434] [018F062B] CRC32
    04 90,3 [645C7B49] [8BFD7AE4] CRC32
    05 99,3 [AF468CA3] [134ED660] CRC32
    06 100,0 [390DEC02] [89043215] CRC32
    07 100,0 [9D95CCAF] [10C4A3CC] CRC32
    08 90,9 [B620FB21] [EFCD75BD] CRC32
    09 42,3 [6A6A2CC1] [D45602B7] CRC32
    10 95,4 [A33D947B] [E188A270] CRC32
    11 100,0 [19D9452C] [B7700558] CRC32
    12 100,0 [3EF5FCA2] [C79E1316] CRC32
    13 88,6 [206D2BCE] [FF8C3125] CRC32
    14 100,0 [1C9BCE28] [30CFC71C] CRC32

    CUE sheet

    TITLE "Sergei Prokofiev: Scythian Suite • The Love for Three Oranges Suite • Symphony No. 5"
    PERFORMER "Antal Doráti"
    REM GENRE Classical
    REM DISCID D211880E
    REM COMMENT "ExactAudioCopy v1.0b3"
    CATALOG 0000004327532
    FILE "01 - Scythian Suite, Op. 20 - I. Adoration of Veles and Ala.flac" WAVE
    TRACK 01 AUDIO
    TITLE "Scythian Suite, Op. 20: I. Adoration of Veles and Ala"
    PERFORMER "London Symphony Orchestra. Antal Doráti, conductor"
    REM DATE 1957
    PREGAP 00:00:32
    INDEX 01 00:00:00
    FILE "02 - Scythian Suite, Op. 20 - II. The Evil God and the Dance of the Pagan Monsters.flac" WAVE
    TRACK 02 AUDIO
    TITLE "Scythian Suite, Op. 20: II. The Evil God and the Dance of the Pagan Monsters"
    PERFORMER "London Symphony Orchestra. Antal Doráti, conductor"
    REM DATE 1957
    INDEX 01 00:00:00
    FILE "03 - Scythian Suite, Op. 20 - III. Night.flac" WAVE
    TRACK 03 AUDIO
    TITLE "Scythian Suite, Op. 20: III. Night"
    PERFORMER "London Symphony Orchestra. Antal Doráti, conductor"
    REM DATE 1957
    INDEX 01 00:00:00
    FILE "04 - Scythian Suite, Op. 20 - IV. Lolly's Departure and the Sun's Procession.flac" WAVE
    TRACK 04 AUDIO
    TITLE "Scythian Suite, Op. 20: IV. Lolly's Departure and the Sun's Procession"
    PERFORMER "London Symphony Orchestra. Antal Doráti, conductor"
    REM DATE 1957
    INDEX 01 00:00:00
    FILE "05 - The Love for Three Oranges Suite, Op. 33bis - I. Les Ridicules.flac" WAVE
    TRACK 05 AUDIO
    TITLE "The Love for Three Oranges Suite, Op. 33bis: I. Les Ridicules"
    PERFORMER "London Symphony Orchestra. Antal Doráti, conductor"
    REM DATE 1957
    INDEX 01 00:00:00
    FILE "06 - The Love for Three Oranges Suite, Op. 33bis - II. Scene infernale.flac" WAVE
    TRACK 06 AUDIO
    TITLE "The Love for Three Oranges Suite, Op. 33bis: II. Scène infernale"
    PERFORMER "London Symphony Orchestra. Antal Doráti, conductor"
    REM DATE 1957
    INDEX 01 00:00:00
    FILE "07 - The Love for Three Oranges Suite, Op. 33bis - III. Marche.flac" WAVE
    TRACK 07 AUDIO
    TITLE "The Love for Three Oranges Suite, Op. 33bis: III. Marche"
    PERFORMER "London Symphony Orchestra. Antal Doráti, conductor"
    REM DATE 1957
    INDEX 01 00:00:00
    FILE "08 - The Love for Three Oranges Suite, Op. 33bis - IV. Scherzo.flac" WAVE
    TRACK 08 AUDIO
    TITLE "The Love for Three Oranges Suite, Op. 33bis: IV. Scherzo"
    PERFORMER "London Symphony Orchestra. Antal Doráti, conductor"
    REM DATE 1957
    INDEX 01 00:00:00
    FILE "09 - The Love for Three Oranges Suite, Op. 33bis - V. Le Prince et la Princesse.flac" WAVE
    TRACK 09 AUDIO
    TITLE "The Love for Three Oranges Suite, Op. 33bis: V. Le Prince et la Princesse"
    PERFORMER "London Symphony Orchestra. Antal Doráti, conductor"
    REM DATE 1957
    INDEX 01 00:00:00
    FILE "10 - The Love for Three Oranges Suite, Op. 33bis - VI. La Fuite.flac" WAVE
    TRACK 10 AUDIO
    TITLE "The Love for Three Oranges Suite, Op. 33bis: VI. La Fuite"
    PERFORMER "London Symphony Orchestra. Antal Doráti, conductor"
    REM DATE 1957
    INDEX 01 00:00:00
    FILE "11 - Symphony No. 5 in B flat major, Op. 100 - I. Andante.flac" WAVE
    TRACK 11 AUDIO
    TITLE "Symphony No. 5 in B flat major, Op. 100: I. Andante"
    PERFORMER "Minneapolis Symphony Orchestra. Antal Doráti, conductor"
    REM DATE 1959
    INDEX 01 00:00:00
    FILE "12 - Symphony No. 5 in B flat major, Op. 100 - II. Allegro marcato.flac" WAVE
    TRACK 12 AUDIO
    TITLE "Symphony No. 5 in B flat major, Op. 100: II. Allegro marcato"
    PERFORMER "Minneapolis Symphony Orchestra. Antal Doráti, conductor"
    REM DATE 1959
    INDEX 01 00:00:00
    FILE "13 - Symphony No. 5 in B flat major, Op. 100 - III. Adagio.flac" WAVE
    TRACK 13 AUDIO
    TITLE "Symphony No. 5 in B flat major, Op. 100: III. Adagio"
    PERFORMER "Minneapolis Symphony Orchestra. Antal Doráti, conductor"
    REM DATE 1959
    INDEX 01 00:00:00
    FILE "14 - Symphony No. 5 in B flat major, Op. 100 - IV. Allegro giocoso.flac" WAVE
    TRACK 14 AUDIO
    TITLE "Symphony No. 5 in B flat major, Op. 100: IV. Allegro giocoso"
    PERFORMER "Minneapolis Symphony Orchestra. Antal Doráti, conductor"
    REM DATE 1959
    INDEX 01 00:00:00
    -
    Сергей Сергеевич Прокофьев — каталог раздач на rutracker.orgВсе мои раздачи / All my releases



  • Показать сообщения:    

    Текущее время: 03-Дек 22:41

    Часовой пояс: UTC + 3


    Вы не можете начинать темы
    Вы не можете отвечать на сообщения
    Вы не можете редактировать свои сообщения
    Вы не можете удалять свои сообщения
    Вы не можете голосовать в опросах
    Вы не можете прикреплять файлы к сообщениям
    Вы не можете скачивать файлы