Театральный роман / Записки покойника (Петр Фоменко, Кирилл Пирогов) [2014 г., Мистификация, SATRip] Московский театр "Мастерская Петра Фоменко"


 

[Цитировать]

Театральный роман (Записки покойника) Название театра: Московский театр "Мастерская Петра Фоменко".
Год выпуска: 2014.
Жанр: Мистификация в 2-х частях.
Продолжительность: 01:28:03 + 01:10:57 (02:39:00).
Режиссеры: народный артист России Петр Фоменко, заслуженный артист России Кирилл Пирогов.

Действующие лица и исполнители

Сергей Леонтьевич Максудов - заслуженный артист России Кирилл Пирогов,
У литераторов:
Ликоспастов, пожилой литератор
- Владимир Топцов,
Егор Нилович Лесопенов, немолодой литератор - заслуженный артист России Тагир Рахимов,
Первая разведенная жена - Ирина Горбачева,
Вторая разведенная жена - Вера Строкова,
Журналист из "Гудка" - Дмитрий Рудков,
Гитарист - Иван Вакуленко,
Эссеист Баклажанов - Игорь Войнаровский,
Измаил Александрович Бондаревский - Дмитрий Захаров,
Деверь из Тетюшей - Сергей Якубенко,
Нянька - Лилия Егорова,
Илья Иванович Рудольфи - Олег Нирян,
Гриша Айвазовский - Томас Моцкус,
В Независимом театре:
Иван Васильевич, один из двух директоров театра
- Максим Литовченко,
Августа Авдеевна Менажраки, секретарь Ивана Васильевича - заслуженная артистка России Мадлен Джабраилова,
Поликсена Васильевна Торопецкая, секретарь Аристарха Платоновича - заслуженная артистка России Галина Тюнина,
Гавриил Степанович, заведующий материальным фондом театра - Олег Нирян,
Михаил Алексеевич Панин, заведующий литературной частью - Дмитрий Рудков,
Антон Антонович Княжевич, заведующий приемом пьес - Николай Орловский,
Филипп Филиппович Тулумбасов, главный администратор театра - Дмитрий Захаров,
«Основоположники»:
Настасья Ивановна Колдыбаева, тётушка Ивана Васильевича
- Наталия Курдюбова,
Маргарита Петровна Таврическая - Ирина Горбачева,
Ипполит Павлович - Анатолий Горячев,
Валентин Конрадович - заслуженный артист России Тагир Рахимов,
Герасим Николаевич Горностаев - Олег Любимов,
Федор Владимирович - Сергей Якубенко,
«Середняки»:
Людмила Сильверстовна Пряхина
- Галина Кашковская,
Петр Петрович Бомбардов - Никита Тюнин,
Елагин - Игорь Войнаровский,
Молодежь:
Вешнякова
- Вера Строкова,
Режиссеры:
Ксаверий Борисович Ильчин, режиссёр учебной сцены
- Олег Нирян,
Евлампия Петровна, женщина-режиссёр - Ирина Горбачева,
Фома Стриж, молодой режиссёр - Иван Вакуленко,
Служащие театра:
Доктор
- Томас Моцкус,
Демьян Кузьмич Клюквин, человек с петлицами - Степан Пьянков,
Баквалин, еще один человек с петлицами - Томас Моцкус,
Посетители конторы:
Человек из Иркутска
- Сергей Петряев,
Экскурсовод из Ялты - Игорь Войнаровский,
Просто Петухов - Николай Орловский,
Человек с претензией на роскошь - Олег Нирян,
Дама, потерявшая сумочку - Вера Строкова,
Дама, знающая Ивана Васильевича 28 лет - Лилия Егорова,
Дама, потерявшая билет - Юлия Камышева,
Скандальная дама - Ирина Горбачева,
Мисси - Вера Строкова,
Амалия Иванна, немка-гувернантка - Ирина Горбачева,
Алёша, малый лет семи - Егор Тихон,
Сивцев Вражек:
Дворник
- Степан Пьянков,
Фельдшерица - Лилия Егорова.
О спектакле:
Спектакль "Театральный роман" с подзаголовком "Записки покойника", поставил один из ведущих артистов "Мастерской Петра Фоменко" Кирилл Пирогов под чутким руководством Мастера и Учителя - Петра Наумовича Фоменко. Режиссерский дебют (а это первый спектакль Пирогова в качестве постановщика) удался. Кроме того, он здесь един в двух лицах - играет главную роль, драматурга Максудова. Это настоящий фоменковский спектакль - тонкий, умный и красивый, местами забавный, местами грустный.
Дополнительная информация:
Страна: Россия .
Выпущено: © Московский театр "Мастерская Петра Фоменко", © ГТРК "Культура", © по заказу Правительства Москвы.
Автор: Михаил Булгаков.
Режиссеры-постановщики спектакля: народный артист России Петр Фоменко, заслуженный артист России Кирилл Пирогов.
Сценография:
[box]Владимир Максимов[/box]
.
Художник по костюмам: Мария Данилова.
Художники по свету: Владислав Фролов, Алексей Шарабурин.
Музыкальная партитура спектакля: народный артист России Петр Фоменко, заслуженный артист России Кирилл Пирогов.
В спектакле звучит музыка Шарля Гуно, Людвига Ван Бетховена, Антона Рубинштейна, Николая Римского-Корсакова, Ильи Саца.
Премьера спектакля состоялась 10 апреля 2012 года.
Режиссер телеверсии: Виктор Спиридонов.
Оператор-постановщик: Владимир Иванов.

О спектакле.
Релиз

Качество видео:...SATRip
Формат:.................AVI
Видео:..720x400 (1.80:1), 25 fps, XviD MPEG-4 ~1823 kbps avg, 0.25 bit/pixel
Аудио:..44.100 kHz, MPEG Layer 3, 2 ch, ~128.00 kbps avg

Отчет MI

1-я часть
Общее
Полное имя : Teatralnyi.roman_Masterskaya.Fomenko.2014.XviD.SATRip.fenixclub\Teatralnyi.roman_Masterskaya.Fomenko.1-ya.chast'.avi
Format : AVI
Format/Info : Audio Video Interleave
File size : 1.21 GiB
Duration : 1h 28mn
Overall bit rate : 1 962 Kbps
Writing application : VirtualDubModRus 1.5.10.2 (build 2542/release)
Writing library : VirtualDub build 32842/release
Video
ID : 0
Format : MPEG-4 Visual
Format profile : Advanced Simple@L5
Format settings, BVOP : 2
Format settings, QPel : No
Format settings, GMC : No warppoints
Format settings, Matrix : Default (H.263)
Muxing mode : Packed bitstream
Codec ID : XVID
Codec ID/Hint : XviD
Duration : 1h 28mn
Bit rate : 1 824 Kbps
Width : 720 pixels
Height : 400 pixels
Display aspect ratio : 16:9
Frame rate : 25.000 fps
Color space : YUV
Chroma subsampling : 4:2:0
Bit depth : 8 bits
Scan type : Progressive
Compression mode : Lossy
Bits/(Pixel*Frame) : 0.253
Stream size : 1.12 GiB (93%)
Writing library : XviD 73
Audio
ID : 1
Format : MPEG Audio
Format version : Version 1
Format profile : Layer 3
Mode : Joint stereo
Mode extension : MS Stereo
Codec ID : 55
Codec ID/Hint : MP3
Duration : 1h 28mn
Bit rate mode : Constant
Bit rate : 128 Kbps
Channel(s) : 2 channels
Sampling rate : 44.1 KHz
Compression mode : Lossy
Stream size : 80.6 MiB (7%)
Alignment : Split accross interleaves
Interleave, duration : 40 ms (1.00 video frame)
Interleave, preload duratio : 500 ms
Writing library : LAME3.98.2
2-я часть
Общее
Полное имя : Teatralnyi.roman_Masterskaya.Fomenko.2014.XviD.SATRip.fenixclub\Teatralnyi.roman_Masterskaya.Fomenko.2-ya.chast'.avi
Format : AVI
Format/Info : Audio Video Interleave
File size : 996 MiB
Duration : 1h 10mn
Overall bit rate : 1 962 Kbps
Writing application : VirtualDubModRus 1.5.10.2 (build 2542/release)
Writing library : VirtualDub build 32842/release
Video
ID : 0
Format : MPEG-4 Visual
Format profile : Advanced Simple@L5
Format settings, BVOP : 2
Format settings, QPel : No
Format settings, GMC : No warppoints
Format settings, Matrix : Default (H.263)
Muxing mode : Packed bitstream
Codec ID : XVID
Codec ID/Hint : XviD
Duration : 1h 10mn
Bit rate : 1 824 Kbps
Width : 720 pixels
Height : 400 pixels
Display aspect ratio : 16:9
Frame rate : 25.000 fps
Color space : YUV
Chroma subsampling : 4:2:0
Bit depth : 8 bits
Scan type : Progressive
Compression mode : Lossy
Bits/(Pixel*Frame) : 0.253
Stream size : 926 MiB (93%)
Writing library : XviD 73
Audio
ID : 1
Format : MPEG Audio
Format version : Version 1
Format profile : Layer 3
Mode : Joint stereo
Mode extension : MS Stereo
Codec ID : 55
Codec ID/Hint : MP3
Duration : 1h 10mn
Bit rate mode : Constant
Bit rate : 128 Kbps
Channel(s) : 2 channels
Sampling rate : 44.1 KHz
Compression mode : Lossy
Stream size : 65.0 MiB (7%)
Alignment : Split accross interleaves
Interleave, duration : 40 ms (1.00 video frame)
Interleave, preload duratio : 500 ms
Writing library : LAME3.98.2

Скриншоты


Альтернативный хост





Показать сообщения:    

Текущее время: 07-Дек 13:38

Часовой пояс: UTC + 3


Вы не можете начинать темы
Вы не можете отвечать на сообщения
Вы не можете редактировать свои сообщения
Вы не можете удалять свои сообщения
Вы не можете голосовать в опросах
Вы не можете прикреплять файлы к сообщениям
Вы не можете скачивать файлы