Звуковое Шоссе - Остин, (Эпизод 4) 2014 / Foo Fighters: Sonic Highways - Austin (Episode 4) 2014 (Дэйв Грол/Dave Grohl) [7.11.2014, Документальный, музыкальный, HDTVRip-AVC]


Статистика раздачи [Обновить пиров]
Размер:  501 MB   |    Зарегистрирован:  8 месяцев 18 дней   |    Скачан:  1 раз

Полного источника не было: 29 дней

 
   
 
 
 

[Цитировать]

Звуковое Шоссе - Остин, (Эпизод 4) 2014 / Foo Fighters: Sonic Highways - Austin (Episode 4) 2014
Дата/Год выпуска: 7.11.2014
Страна: США
Жанр: Документальный, музыкальный
Продолжительность: 59:20
Перевод: Любительский (многоголосый закадровый)
Доп. инфо о переводе: Abandoned Studio
Русские субтитры: нет
Оригинальная аудиодорожка: нет
Режиссер: Дэйв Грол/Dave Grohl
Телеканал: HBO
Описание: Foo Fighters готовятся к записи песни "Что я сделал?/Бог мне свидетель" в бывшей телестудии шоу Austin City Limits, с блюзовый гитаристом Гари Кларком. Дэйв беседует с Терри Ликоной, исполнительным продюсером Austin City Limits. Обсуждаются корни музыки в Остине, интервью с участием Билли Гиббонса из ZZ Top, и Роки Эриксон из 13th Floor Elevators, который считается одним из отцов американского психоделического рока. Песня "Что я сделал?/Бог мне свидетель" записывается во время этого эпизода.
Сэмпл: Сэмпл
качество: HDTVRip
формат: MP4
Видео: Кодек: H.264 (NTSC), Разрешение кадра: 720 x 404 (16:9), Битрейт: 988 kbps, 23.976 fps
Аудио: Кодек: AAC, Битрейт: 192 kbps, Частота дискретизации: 48000 kHz, Stereo

MediaInfo

Complete name : /Users/applesoranjes/Desktop/Record/Sonic Highways/Episode 4/Episode 4_1.mp4
Format : MPEG-4
Format profile : Base Media / Version 2
Codec ID : mp42
File size : 501 MiB
Duration : 59mn 20s
Overall bit rate mode : Variable
Overall bit rate : 1 181 Kbps
Encoded date : UTC 2015-04-08 16:29:44
Tagged date : UTC 2015-04-08 16:29:56
©TIM : 00:00:00:00
©TSC : 24000
©TSZ : 1001
Video
ID : 1
Format : AVC
Format/Info : Advanced Video Codec
Format profile : Main@L3.2
Format settings, CABAC : Yes
Format settings, ReFrames : 3 frames
Codec ID : avc1
Codec ID/Info : Advanced Video Coding
Duration : 59mn 20s
Source duration : 59mn 20s
Bit rate : 988 Kbps
Width : 720 pixels
Height : 404 pixels
Display aspect ratio : 16:9
Frame rate mode : Variable
Frame rate : 23.976 fps
Minimum frame rate : 23.976 fps
Maximum frame rate : 24.000 fps
Standard : NTSC
Color space : YUV
Chroma subsampling : 4:2:0
Bit depth : 8 bits
Scan type : Progressive
Bits/(Pixel*Frame) : 0.142
Stream size : 419 MiB (84%)
Source stream size : 419 MiB (84%)
Language : English
Encoded date : UTC 2015-04-08 16:29:44
Tagged date : UTC 2015-04-08 16:29:44
mdhd_Duration : 3560390
Audio
ID : 2
Format : AAC
Format/Info : Advanced Audio Codec
Format profile : LC
Codec ID : 40
Duration : 59mn 20s
Source duration : 59mn 20s
Bit rate mode : Variable
Bit rate : 192 Kbps
Maximum bit rate : 306 Kbps
Channel(s) : 2 channels
Channel positions : Front: L R
Sampling rate : 48.0 KHz
Compression mode : Lossy
Stream size : 80.4 MiB (16%)
Source stream size : 80.4 MiB (16%)
Language : English
Encoded date : UTC 2015-04-08 16:29:44
Tagged date : UTC 2015-04-08 16:29:44
mdhd_Duration : 3560427

Скриншоты

[teatrix.ru].t20881.torrent 
Торрент: Зарегистрирован [ 2016-03-20 00:57 ] · 6BA711F4ECA96C1296050C7F27CD5031C1788F44

Скачать .torrent

Скачать

20 KB

Статус: проверено
Скачан: 1 раз
Размер: 501 MB
terms.php



Быстрый ответ

Имя:

      
Для отправки сообщений необходимо включить JavaScript
Показать сообщения:    

Текущее время: 07-Дек 11:39

Часовой пояс: UTC + 3


Вы можете начинать темы
Вы можете отвечать на сообщения
Вы не можете редактировать свои сообщения
Вы не можете удалять свои сообщения
Вы не можете голосовать в опросах
Вы не можете прикреплять файлы к сообщениям
Вы можете скачивать файлы