(Opera, Vocal) Richard Tucker: Recital (recordings of 1950-1962) (Operatic Scenes by Giuseppe Verdi, Giacomo Puccini, Jules Massenet) - 1996, FLAC (tracks+.cue), lossless


 

[Цитировать]

Richard Tucker: Recital (1950-1962)
Жанр: Opera, Vocal
Страна-производитель диска: Хорватия
Год издания диска: 1996
Издатель (лейбл): Myto Records
Дата записи: 1950-1962
Аудиокодек: FLAC
Тип рипа: tracks+.cue
Битрейт аудио: lossless
Продолжительность: 74:12
Источник: релизер (Guillermo)
Треклист:
Giuseppe Verdi:
1. Un ballo in maschera - ''Teco io sto''
2. Don Carlo - ''Io vengo a domandar''
3. Aida - ''Pur ti riveggo''
4. Simon Boccanegra - ''Vieni a mirar''
5. Otello - ''Già nella notte''
Jules Masenet:
6. Manon - ''Toi, moi''
Giacomo Puccini:
7. Manon Lescaut - ''Tu, tu, amore tu''
8. Manon Lescaut - ''Fra le tue braccia''
9. La bohème - ''O soave fanciulla''
10. Tosca - ''Perché chiuso?''
Исполнители:
Richard Tucker, tenor,
Eileen Farrell, soprano (1-5),
Dorothy Kirsten, soprano (6-9),
Ljuba Welitsch, soprano (10).
Fausto Cleva, Conductor (1-9),
Max Rudolf, Conductor (10).
Recording's dates:
1962 - tracks 1-5,
1955 - tracks 6-9,
1950 - track 10.

Лог создания рипа

Exact Audio Copy V1.0 beta 3 from 29. August 2011
EAC extraction logfile from 4. April 2015, 19:42
Artista desconocido / Título desconocido
Used drive : HL-DT-STDVDRAM GH24NSC0 Adapter: 3 ID: 0
Read mode : Secure
Utilize accurate stream : Yes
Defeat audio cache : Yes
Make use of C2 pointers : Yes
Read offset correction : 6
Overread into Lead-In and Lead-Out : No
Fill up missing offset samples with silence : Yes
Delete leading and trailing silent blocks : Yes
Null samples used in CRC calculations : Yes
Used interface : Native Win32 interface for Win NT & 2000
Gap handling : Appended to previous track
Used output format : User Defined Encoder
Selected bitrate : 768 kBit/s
Quality : High
Add ID3 tag : No
Command line compressor : C:\Program Files (x86)\Exact Audio Copy\FLAC\FLAC.EXE
Additional command line options : -8 -V -T "ARTIST=%artist%" -T "TITLE=%title%" -T "ALBUM=%albumtitle%" -T "DATE=%year%" -T "TRACKNUMBER=%tracknr%" -T "GENRE=%genre%" -T "PERFORMER=%albuminterpret%" -T "COMPOSER=%composer%" %haslyrics%--tag-from-file=LYRICS="%lyricsfile%"%haslyrics% -T "ALBUMARTIST=%albumartist%" -T "DISCNUMBER=%cdnumber%" -T "TOTALDISCS=%totalcds%" -T "TOTALTRACKS=%numtracks%" -T "COMMENT=%comment%" %source% -o %dest%
TOC of the extracted CD
Track | Start | Length | Start sector | End sector
---------------------------------------------------------
1 | 0:00.33 | 7:52.25 | 33 | 35457
2 | 7:52.58 | 9:14.00 | 35458 | 77007
3 | 17:06.58 | 8:20.25 | 77008 | 114532
4 | 25:27.08 | 5:19.50 | 114533 | 138507
5 | 30:46.58 | 9:34.00 | 138508 | 181557
6 | 40:20.58 | 6:58.25 | 181558 | 212932
7 | 47:19.08 | 6:52.62 | 212933 | 243894
8 | 54:11.70 | 5:47.23 | 243895 | 269942
9 | 59:59.18 | 3:44.15 | 269943 | 286757
10 | 63:43.33 | 11:33.25 | 286758 | 338757
Track 1
Filename f:\Users\Guillermo\Desktop\EAC convertidos\01 Pista01.wav
Pre-gap length 0:00:02.44
Peak level 78.6 %
Extraction speed 1.9 X
Track quality 100.0 %
Test CRC 0FB9FD4D
Copy CRC 0FB9FD4D
Copy OK
Track 2
Filename f:\Users\Guillermo\Desktop\EAC convertidos\02 Pista02.wav
Peak level 94.0 %
Extraction speed 2.3 X
Track quality 100.0 %
Test CRC 7D9F7A66
Copy CRC 7D9F7A66
Copy OK
Track 3
Filename f:\Users\Guillermo\Desktop\EAC convertidos\03 Pista03.wav
Peak level 88.3 %
Extraction speed 2.6 X
Track quality 100.0 %
Test CRC 21A459F6
Copy CRC 21A459F6
Copy OK
Track 4
Filename f:\Users\Guillermo\Desktop\EAC convertidos\04 Pista04.wav
Peak level 78.6 %
Extraction speed 2.6 X
Track quality 100.0 %
Test CRC 05170929
Copy CRC 05170929
Copy OK
Track 5
Filename f:\Users\Guillermo\Desktop\EAC convertidos\05 Pista05.wav
Peak level 82.7 %
Extraction speed 3.1 X
Track quality 100.0 %
Test CRC 4628D556
Copy CRC 4628D556
Copy OK
Track 6
Filename f:\Users\Guillermo\Desktop\EAC convertidos\06 Pista06.wav
Peak level 74.4 %
Extraction speed 3.2 X
Track quality 100.0 %
Test CRC 2E445678
Copy CRC 2E445678
Copy OK
Track 7
Filename f:\Users\Guillermo\Desktop\EAC convertidos\07 Pista07.wav
Peak level 79.2 %
Extraction speed 3.4 X
Track quality 100.0 %
Test CRC 4AAB5619
Copy CRC 4AAB5619
Copy OK
Track 8
Filename f:\Users\Guillermo\Desktop\EAC convertidos\08 Pista08.wav
Peak level 76.6 %
Extraction speed 3.4 X
Track quality 100.0 %
Test CRC 77B34225
Copy CRC 77B34225
Copy OK
Track 9
Filename f:\Users\Guillermo\Desktop\EAC convertidos\09 Pista09.wav
Peak level 80.7 %
Extraction speed 3.3 X
Track quality 100.0 %
Test CRC B179BD26
Copy CRC B179BD26
Copy OK
Track 10
Filename f:\Users\Guillermo\Desktop\EAC convertidos\10 Pista10.wav
Peak level 73.8 %
Extraction speed 4.0 X
Track quality 100.0 %
Test CRC 298D9BF4
Copy CRC 298D9BF4
Copy OK
No errors occurred
End of status report
==== Log checksum C65EE467264A195C9A84E55FFBE15E5B609D01CEDE4EA8EF481B4E62BA0530B7 ====

Содержание индексной карты (.CUE)

REM DISCID 8411A40A
REM COMMENT "ExactAudioCopy v1.0b3"
FILE "01 Un ballo in maschera - ''Teco io sto''WAVE
TRACK 01 AUDIO
PREGAP 00:00:33
INDEX 01 00:00:00
FILE "02 Don Carlo - ''Io vengo a domandar" WAVE
TRACK 02 AUDIO
INDEX 01 00:00:00
FILE "03 Aida - ''Pur ti riveggo" WAVE
TRACK 03 AUDIO
INDEX 01 00:00:00
FILE "04 Simon Boccanegra - ''Vieni a mirar" WAVE
TRACK 04 AUDIO
INDEX 01 00:00:00
FILE "05 Otello - ''Gia nella notte" WAVE
TRACK 05 AUDIO
INDEX 01 00:00:00
FILE "06 Manon - ''Toi, moi" WAVE
TRACK 06 AUDIO
INDEX 01 00:00:00
FILE "07 Manon Lescaut - ''Tu, tu, amore tu" WAVE
TRACK 07 AUDIO
INDEX 01 00:00:00
FILE "08 Manon Lescaut - ''Fra le tue braccia" WAVE
TRACK 08 AUDIO
INDEX 01 00:00:00
FILE "09 La boheme - ''O soave fanciulla" WAVE
TRACK 09 AUDIO
INDEX 01 00:00:00
FILE "10 Tosca - ''Perche chiuso" WAVE
TRACK 10 AUDIO
INDEX 01 00:00:00



Показать сообщения:    

Текущее время: 09-Дек 16:33

Часовой пояс: UTC + 3


Вы не можете начинать темы
Вы не можете отвечать на сообщения
Вы не можете редактировать свои сообщения
Вы не можете удалять свои сообщения
Вы не можете голосовать в опросах
Вы не можете прикреплять файлы к сообщениям
Вы не можете скачивать файлы