Звуковое Шоссе - Нэшвилл, (Эпизод 3) 2014 / Foo Fighters: Sonic Highways - Nashville (Episode 3) 2014 (Дэйв Грол/Dave Grohl) [31.10.2014, Документальный, музыкальный, HDTVRip-AVC]


Статистика раздачи [Обновить пиров]
Размер:  510 MB   |    Зарегистрирован:  8 месяцев 19 дней   |    Скачан:  0 раз

Полного источника не было: Никогда

 
   
 
 
 

[Цитировать]

Звуковое Шоссе - Нэшвилл, (Эпизод 3) 2014 / Foo Fighters: Sonic Highways - Nashville (Episode 3) 2014
Дата/Год выпуска: 31.10.2014
Страна: США
Жанр: Документальный, музыкальный
Продолжительность: 01:00:02
Перевод: Любительский (многоголосый закадровый)
Доп. инфо о переводе: Abandoned Studio
Русские субтитры: нет
Оригинальная аудиодорожка: нет
Режиссер: Дэйв Грол/Dave Grohl
Телеканал: HBO
Описание: Участники группы направляется в Нэшвилл, штат Теннеси. Дэйв общается с Долли Партон, Тони Джо Уайтом, Стивом Эрлом, Вилли Нельсоном, Эмилу Харрис и продюсером Тони Брауном, они обсуждают музыкальную индустрию Нэшвилла, и его звук. Foo Fighters записывают песню на студии Зака Брауна, известного кантри-музыканта, который так же становится участником новой песни "Община".
Сэмпл: Сэмпл
качество: HDTVRip
формат: MP4
Видео: Кодек: H.264 (NTSC), Разрешение кадра: 624 x 350 (16:9), Битрейт: 995 kbps, 23.976 fps
Аудио: Кодек: AAC, Битрейт: 192 kbps, Частота дискретизации: 48000 kHz, Stereo

MediaInfo

Complete name : /Users/applesoranjes/Desktop/Record/Sonic Highways/Episode 3/Nashville, Episode 3.mp4
Format : MPEG-4
Format profile : Base Media / Version 2
Codec ID : mp42
File size : 510 MiB
Duration : 1h 0mn
Overall bit rate mode : Variable
Overall bit rate : 1 188 Kbps
Encoded date : UTC 2015-04-08 23:20:24
Tagged date : UTC 2015-04-08 23:20:40
©TIM : 00:00:00:00
©TSC : 24000
©TSZ : 1001
Video
ID : 1
Format : AVC
Format/Info : Advanced Video Codec
Format profile : Main@L3.2
Format settings, CABAC : Yes
Format settings, ReFrames : 3 frames
Codec ID : avc1
Codec ID/Info : Advanced Video Coding
Duration : 1h 0mn
Source duration : 1h 0mn
Bit rate : 995 Kbps
Width : 624 pixels
Height : 350 pixels
Display aspect ratio : 16:9
Frame rate mode : Variable
Frame rate : 23.976 fps
Minimum frame rate : 23.976 fps
Maximum frame rate : 24.000 fps
Standard : NTSC
Color space : YUV
Chroma subsampling : 4:2:0
Bit depth : 8 bits
Scan type : Progressive
Bits/(Pixel*Frame) : 0.190
Stream size : 427 MiB (84%)
Source stream size : 427 MiB (84%)
Language : English
Encoded date : UTC 2015-04-08 23:20:24
Tagged date : UTC 2015-04-08 23:20:24
mdhd_Duration : 3602015
Audio
ID : 2
Format : AAC
Format/Info : Advanced Audio Codec
Format profile : LC
Codec ID : 40
Duration : 1h 0mn
Source duration : 1h 0mn
Bit rate mode : Variable
Bit rate : 192 Kbps
Maximum bit rate : 314 Kbps
Channel(s) : 2 channels
Channel positions : Front: L R
Sampling rate : 48.0 KHz
Compression mode : Lossy
Stream size : 81.3 MiB (16%)
Source stream size : 81.3 MiB (16%)
Language : English
Encoded date : UTC 2015-04-08 23:20:24
Tagged date : UTC 2015-04-08 23:20:24
mdhd_Duration : 3602069

Скриншоты

[teatrix.ru].t20884.torrent 
Торрент: Зарегистрирован [ 2016-03-20 00:57 ] · C8451E0FD7845A7BB36C8D0EF0E53348D7BA6EC1

Скачать .torrent

Скачать

20 KB

Статус: проверено
Скачан: 0 раз
Размер: 510 MB
terms.php



Быстрый ответ

Имя:

      
Для отправки сообщений необходимо включить JavaScript
Показать сообщения:    

Текущее время: 08-Дек 23:08

Часовой пояс: UTC + 3


Вы можете начинать темы
Вы можете отвечать на сообщения
Вы не можете редактировать свои сообщения
Вы не можете удалять свои сообщения
Вы не можете голосовать в опросах
Вы не можете прикреплять файлы к сообщениям
Вы можете скачивать файлы