(Opera, Vocal) Tony Poncet - Great Opera Arias (Tenor Arias by Gioachino Rossini, Giuseppe Verdi, Giacomo Puccini, Fromental Halevy, Giacomo Meyerbeer, Ruggero Leoncavallo, Franz Lehar - performed in French), 1957-1960 / 2011, FLAC (tracks), lossless


 

[Цитировать]

Tony Poncet - The Golden Voice: Great Opera Arias (Tenor Arias by Gioachino Rossini, Giuseppe Verdi, Giacomo Puccini, Fromental Halevy, Giacomo Meyerbeer, Ruggero Leoncavallo, Franz Lehar - performed in French)

Жанр: Opera, Vocal
Страна-производитель диска: Франция
Год издания диска: 2011
Издатель (лейбл): Marianne Melodie
Дата записи: 1957-1960
Аудиокодек: FLAC
Тип рипа: tracks
Битрейт аудио: lossless
Продолжительность: 72:02
Источник: релизер (Guillermo)
Исполнители:
Tony Poncet, tenor,
Jésus Etcheverry, Conductor,
Grand Orchestre Symphonique,
Marcel Couraud, Conductor (14, 15),
Orchestra of Opera d'Karlsruhe.
Recording's Dates:
1958 - tracks 1-8,
1960 - tracks 9-19,
1957 - tracks 20-23.

Лог создания рипа

Exact Audio Copy V1.0 beta 3 from 29. August 2011
EAC extraction logfile from 8. April 2015, 21:21
Artista desconocido / Título desconocido
Used drive : HL-DT-STDVDRAM GH24NSC0 Adapter: 3 ID: 0
Read mode : Secure
Utilize accurate stream : Yes
Defeat audio cache : Yes
Make use of C2 pointers : Yes
Read offset correction : 6
Overread into Lead-In and Lead-Out : No
Fill up missing offset samples with silence : Yes
Delete leading and trailing silent blocks : Yes
Null samples used in CRC calculations : Yes
Used interface : Native Win32 interface for Win NT & 2000
Gap handling : Appended to previous track
Used output format : User Defined Encoder
Selected bitrate : 768 kBit/s
Quality : High
Add ID3 tag : No
Command line compressor : C:\Program Files (x86)\Exact Audio Copy\FLAC\FLAC.EXE
Additional command line options : -8 -V -T "ARTIST=%artist%" -T "TITLE=%title%" -T "ALBUM=%albumtitle%" -T "DATE=%year%" -T "TRACKNUMBER=%tracknr%" -T "GENRE=%genre%" -T "PERFORMER=%albuminterpret%" -T "COMPOSER=%composer%" %haslyrics%--tag-from-file=LYRICS="%lyricsfile%"%haslyrics% -T "ALBUMARTIST=%albumartist%" -T "DISCNUMBER=%cdnumber%" -T "TOTALDISCS=%totalcds%" -T "TOTALTRACKS=%numtracks%" -T "COMMENT=%comment%" %source% -o %dest%
TOC of the extracted CD
Track | Start | Length | Start sector | End sector
---------------------------------------------------------
1 | 0:00.00 | 2:16.49 | 0 | 10248
2 | 2:16.49 | 1:21.68 | 10249 | 16391
3 | 3:38.42 | 4:22.34 | 16392 | 36075
4 | 8:01.01 | 4:12.09 | 36076 | 54984
5 | 12:13.10 | 4:51.53 | 54985 | 76862
6 | 17:04.63 | 2:41.05 | 76863 | 88942
7 | 19:45.68 | 3:08.20 | 88943 | 103062
8 | 22:54.13 | 3:44.62 | 103063 | 119924
9 | 26:39.00 | 1:31.28 | 119925 | 126777
10 | 28:10.28 | 2:31.41 | 126778 | 138143
11 | 30:41.69 | 3:35.49 | 138144 | 154317
12 | 34:17.43 | 3:33.20 | 154318 | 170312
13 | 37:50.63 | 4:04.22 | 170313 | 188634
14 | 41:55.10 | 6:27.07 | 188635 | 217666
15 | 48:22.17 | 3:00.45 | 217667 | 231211
16 | 51:22.62 | 1:46.31 | 231212 | 239192
17 | 53:09.18 | 2:49.09 | 239193 | 251876
18 | 55:58.27 | 2:23.24 | 251877 | 262625
19 | 58:21.51 | 2:57.51 | 262626 | 275951
20 | 61:19.27 | 4:17.25 | 275952 | 295251
21 | 65:36.52 | 4:18.43 | 295252 | 314644
22 | 69:55.20 | 3:36.11 | 314645 | 330855
23 | 73:31.31 | 3:40.47 | 330856 | 347402
Track 1
Filename f:\Users\Guillermo\Desktop\EAC convertidos\01 Pista01.wav
Pre-gap length 0:00:02.00
Peak level 98.8 %
Extraction speed 1.4 X
Track quality 100.0 %
Test CRC 1864BAE8
Copy CRC 1864BAE8
Copy OK
Track 2
Filename f:\Users\Guillermo\Desktop\EAC convertidos\02 Pista02.wav
Pre-gap length 0:00:03.00
Peak level 98.8 %
Extraction speed 0.9 X
Track quality 99.7 %
Test CRC A8DD89F8
Copy CRC A8DD89F8
Copy OK
Track 3
Filename f:\Users\Guillermo\Desktop\EAC convertidos\03 Pista03.wav
Pre-gap length 0:00:03.00
Peak level 98.8 %
Extraction speed 1.8 X
Track quality 100.0 %
Test CRC F38AA398
Copy CRC F38AA398
Copy OK
Track 4
Filename f:\Users\Guillermo\Desktop\EAC convertidos\04 Pista04.wav
Pre-gap length 0:00:03.00
Peak level 98.8 %
Extraction speed 1.9 X
Track quality 100.0 %
Test CRC 2F18922D
Copy CRC 2F18922D
Copy OK
Track 5
Filename f:\Users\Guillermo\Desktop\EAC convertidos\05 Pista05.wav
Pre-gap length 0:00:03.00
Peak level 98.8 %
Extraction speed 2.1 X
Track quality 100.0 %
Test CRC 3E13FB9C
Copy CRC 3E13FB9C
Copy OK
Track 6
Filename f:\Users\Guillermo\Desktop\EAC convertidos\06 Pista06.wav
Pre-gap length 0:00:03.00
Peak level 98.8 %
Extraction speed 2.0 X
Track quality 100.0 %
Test CRC B409A2D3
Copy CRC B409A2D3
Copy OK
Track 7
Filename f:\Users\Guillermo\Desktop\EAC convertidos\07 Pista07.wav
Pre-gap length 0:00:03.00
Peak level 98.8 %
Extraction speed 2.1 X
Track quality 100.0 %
Test CRC 4DA1C7AF
Copy CRC 4DA1C7AF
Copy OK
Track 8
Filename f:\Users\Guillermo\Desktop\EAC convertidos\08 Pista08.wav
Pre-gap length 0:00:03.00
Peak level 98.8 %
Extraction speed 2.3 X
Track quality 100.0 %
Test CRC 22E1C7D1
Copy CRC 22E1C7D1
Copy OK
Track 9
Filename f:\Users\Guillermo\Desktop\EAC convertidos\09 Pista09.wav
Pre-gap length 0:00:03.00
Peak level 98.8 %
Extraction speed 1.8 X
Track quality 100.0 %
Test CRC 4C80CDB4
Copy CRC 4C80CDB4
Copy OK
Track 10
Filename f:\Users\Guillermo\Desktop\EAC convertidos\10 Pista10.wav
Pre-gap length 0:00:03.00
Peak level 98.8 %
Extraction speed 2.2 X
Track quality 100.0 %
Test CRC 0F22B8BC
Copy CRC 0F22B8BC
Copy OK
Track 11
Filename f:\Users\Guillermo\Desktop\EAC convertidos\11 Pista11.wav
Pre-gap length 0:00:03.00
Peak level 98.8 %
Extraction speed 2.5 X
Track quality 100.0 %
Test CRC 444B5F6B
Copy CRC 444B5F6B
Copy OK
Track 12
Filename f:\Users\Guillermo\Desktop\EAC convertidos\12 Pista12.wav
Pre-gap length 0:00:03.00
Peak level 98.8 %
Extraction speed 2.6 X
Track quality 100.0 %
Test CRC 6117C80C
Copy CRC 6117C80C
Copy OK
Track 13
Filename f:\Users\Guillermo\Desktop\EAC convertidos\13 Pista13.wav
Pre-gap length 0:00:03.00
Peak level 98.8 %
Extraction speed 2.8 X
Track quality 100.0 %
Test CRC 69E6313A
Copy CRC 69E6313A
Copy OK
Track 14
Filename f:\Users\Guillermo\Desktop\EAC convertidos\14 Pista14.wav
Pre-gap length 0:00:03.00
Peak level 89.3 %
Extraction speed 3.1 X
Track quality 100.0 %
Test CRC 3F0378EF
Copy CRC 3F0378EF
Copy OK
Track 15
Filename f:\Users\Guillermo\Desktop\EAC convertidos\15 Pista15.wav
Pre-gap length 0:00:03.00
Peak level 99.1 %
Extraction speed 2.8 X
Track quality 100.0 %
Test CRC B8731CAC
Copy CRC B8731CAC
Copy OK
Track 16
Filename f:\Users\Guillermo\Desktop\EAC convertidos\16 Pista16.wav
Pre-gap length 0:00:03.00
Peak level 98.7 %
Extraction speed 1.8 X
Track quality 99.8 %
Test CRC 7506E679
Copy CRC 7506E679
Copy OK
Track 17
Filename f:\Users\Guillermo\Desktop\EAC convertidos\17 Pista17.wav
Pre-gap length 0:00:03.00
Peak level 98.8 %
Extraction speed 2.8 X
Track quality 100.0 %
Test CRC D3D7404E
Copy CRC D3D7404E
Copy OK
Track 18
Filename f:\Users\Guillermo\Desktop\EAC convertidos\18 Pista18.wav
Pre-gap length 0:00:03.00
Peak level 98.8 %
Extraction speed 2.8 X
Track quality 100.0 %
Test CRC 09F0640D
Copy CRC 09F0640D
Copy OK
Track 19
Filename f:\Users\Guillermo\Desktop\EAC convertidos\19 Pista19.wav
Pre-gap length 0:00:03.00
Peak level 98.8 %
Extraction speed 3.0 X
Track quality 100.0 %
Test CRC A15F376E
Copy CRC A15F376E
Copy OK
Track 20
Filename f:\Users\Guillermo\Desktop\EAC convertidos\20 Pista20.wav
Pre-gap length 0:00:03.00
Peak level 99.4 %
Extraction speed 3.3 X
Track quality 100.0 %
Test CRC D1BB725F
Copy CRC D1BB725F
Copy OK
Track 21
Filename f:\Users\Guillermo\Desktop\EAC convertidos\21 Pista21.wav
Pre-gap length 0:00:03.00
Peak level 99.4 %
Extraction speed 3.4 X
Track quality 100.0 %
Test CRC 87665AEA
Copy CRC 87665AEA
Copy OK
Track 22
Filename f:\Users\Guillermo\Desktop\EAC convertidos\22 Pista22.wav
Pre-gap length 0:00:03.00
Peak level 99.4 %
Extraction speed 3.3 X
Track quality 100.0 %
Test CRC 5DEEDFBD
Copy CRC 5DEEDFBD
Copy OK
Track 23
Filename f:\Users\Guillermo\Desktop\EAC convertidos\23 Pista23.wav
Pre-gap length 0:00:03.00
Peak level 99.4 %
Extraction speed 3.4 X
Track quality 100.0 %
Test CRC B381AA30
Copy CRC B381AA30
Copy OK
No errors occurred
End of status report
==== Log checksum 4D1086B09CCFA6BB05B9CB6A196E338D2BDD2C3344C59E338DA244A4A8446DC5 ====

Треклист

Giuseppe Verdi
1. Rigoletto, Act IV: ''Comme la plume au vent''
2. Il trovatore (Le Trouvere), Act III: ''Supplice infame''
3. Aida, Act I: ''Celeste Aida''
Giacomo Meyerbeer
4. Les Huguenots, Act I: Plus blanche
Fromental Halevy
La Juive (excerpts):
5. Act IV: "Rachel, quand du Seigneur"
6. Act II: "Dieu, que ma voix"
Giacomo Meyerbeer
L'Africaine (excerpts):
7. Act IV: "Pays merveilleux"
8. Act IV: "Conduisez-moi vers ce navire"
Ruggero Leoncavallo
Pagliacci (Paillasse) (excerpts):
9. "Ce soir un spectacle"
10. "Avec moi tenter ce jeu"
11. "Me grimer! … Pauvre Paillasse"
12. "Non, Paillasse n'est plus"
13. Giacomo Puccini - La boheme, Act I: "Que cette main est froide"
Gioachino Rossini
Guillaume Tell (William Tell) (excerpts):
14. Act IV: Air: "Asile hereditaire"
15. Act IV: Scene finale avec Choeurs
Giacomo Puccini
16. La fanciulla del West, Act III: "Qu'elle me croie en liberte"
17. Turandot, Act III: "Nul ne dormait"
Tosca (excerpts):
18. Act I: "O de Beautes egales"
19. Act III: "Le ciel luisait d'etoiles"
Franz Lehar
Das Land des Lachelns (The Land of Smiles) (excerpts):
20. Act I: "Toujours sourire"
21. Act I: "Prendre le the a deux"
22. Act I: "Dans l'ombre blanche des pommiers en fleurs"
23. Act II: "Lied: Je t'ai donne mon coeur"



Показать сообщения:    

Текущее время: 11-Дек 16:55

Часовой пояс: UTC + 3


Вы не можете начинать темы
Вы не можете отвечать на сообщения
Вы не можете редактировать свои сообщения
Вы не можете удалять свои сообщения
Вы не можете голосовать в опросах
Вы не можете прикреплять файлы к сообщениям
Вы не можете скачивать файлы