Звуковое Шоссе - Лос-Анджелес, (Эпизод 5) 2014 / Foo Fighters: Sonic Highways - Los Angeles (Episode 5) 2014 (Дэйв Грол/Dave Grohl) [14.11.2014, документальный, музыкальный, HDTVRip-AVC]


Статистика раздачи [Обновить пиров]
Размер:  497 MB   |    Зарегистрирован:  8 месяцев 18 дней   |    Скачан:  1 раз

Полного источника не было: 19 дней

 
   
 
 
 

[Цитировать]

Звуковое Шоссе - Лос-Анджелес, (Эпизод 5) 2014 / Foo Fighters: Sonic Highways - Los Angeles (Episode 5) 2014
Дата/Год выпуска: 14.11.2014
Страна: США
Жанр: документальный, музыкальный
Продолжительность: 00:58:46
Перевод: Любительский (многоголосый закадровый)
Доп. инфо о переводе: Abandoned Studio
Русские субтитры: нет
Оригинальная аудиодорожка: нет
Режиссер: Дэйв Грол/Dave Grohl
Описание: История музыки в Лос-Анджелесе, который получает более посмотрел. Пэт Смир вспоминает о The Germs, и навещает легендарного ди-джея KROQ FM Родни Бингенхаймер, владельца клуба на Сансет Стрип в 70е, который стал центром глэм-рок-сцены. Foo Fighters отправляются в пустыню, на Ранчо-де-ла-Луна, чтобы записать новую песню "Внешний мир", в записи которой принимает участие гитарист Джо Уолш из группы Eagles. Так же обсуждается музыкальная сцена в Palm Desert в начале 90х.
Сэмпл: Сэмпл
качество: HDTVRip
формат: MP4
Видео: Кодек: H.264 (NTSC), Разрешение кадра: 624 x 350 (16:9), Битрейт: 989 kbps, 23.976 fps
Аудио: Кодек: AAC, Битрейт: 192 kbps, Частота дискретизации: 48000 kHz, Stereo

MediaInfo

Complete name : /Users/applesoranjes/Desktop/Record/Sonic Highways/Episode 5/Los Angeles, Episode 5_1.mp4
Format : MPEG-4
Format profile : Base Media / Version 2
Codec ID : mp42
File size : 497 MiB
Duration : 58mn 46s
Overall bit rate mode : Variable
Overall bit rate : 1 182 Kbps
Encoded date : UTC 2015-04-10 00:02:15
Tagged date : UTC 2015-04-10 00:03:08
©TIM : 00:00:00:00
©TSC : 24000
©TSZ : 1001
Video
ID : 1
Format : AVC
Format/Info : Advanced Video Codec
Format profile : Main@L3.2
Format settings, CABAC : Yes
Format settings, ReFrames : 3 frames
Codec ID : avc1
Codec ID/Info : Advanced Video Coding
Duration : 58mn 46s
Source duration : 58mn 46s
Bit rate : 989 Kbps
Width : 624 pixels
Height : 350 pixels
Display aspect ratio : 16:9
Frame rate mode : Variable
Frame rate : 23.976 fps
Minimum frame rate : 23.976 fps
Maximum frame rate : 24.000 fps
Standard : NTSC
Color space : YUV
Chroma subsampling : 4:2:0
Bit depth : 8 bits
Scan type : Progressive
Bits/(Pixel*Frame) : 0.189
Stream size : 416 MiB (84%)
Source stream size : 416 MiB (84%)
Language : English
Encoded date : UTC 2015-04-10 00:02:15
Tagged date : UTC 2015-04-10 00:02:15
mdhd_Duration : 3526231
Audio
ID : 2
Format : AAC
Format/Info : Advanced Audio Codec
Format profile : LC
Codec ID : 40
Duration : 58mn 46s
Source duration : 58mn 46s
Bit rate mode : Variable
Bit rate : 192 Kbps
Maximum bit rate : 314 Kbps
Channel(s) : 2 channels
Channel positions : Front: L R
Sampling rate : 48.0 KHz
Compression mode : Lossy
Stream size : 79.6 MiB (16%)
Source stream size : 79.6 MiB (16%)
Language : English
Encoded date : UTC 2015-04-10 00:02:15
Tagged date : UTC 2015-04-10 00:02:15
mdhd_Duration : 3526272

Скриншоты

[teatrix.ru].t20887.torrent 
Торрент: Зарегистрирован [ 2016-03-20 00:58 ] · 86F421CB10268374923EE02F9F148A9728152A58

Скачать .torrent

Скачать

20 KB

Статус: проверено
Скачан: 1 раз
Размер: 497 MB
terms.php



Быстрый ответ

Имя:

      
Для отправки сообщений необходимо включить JavaScript
Показать сообщения:    

Текущее время: 07-Дек 15:34

Часовой пояс: UTC + 3


Вы можете начинать темы
Вы можете отвечать на сообщения
Вы не можете редактировать свои сообщения
Вы не можете удалять свои сообщения
Вы не можете голосовать в опросах
Вы не можете прикреплять файлы к сообщениям
Вы можете скачивать файлы