Все или ничего: Неизвестная история агента 007 / Everything or Nothing: The Untold Story of 007 (Стивен Райли / Stevan Riley) [2012, Документальный, HDTVRip]


Статистика раздачи [Обновить пиров]
Размер:  1.38 GB   |    Зарегистрирован:  8 месяцев 18 дней   |    Скачан:  0 раз

Полного источника не было: Никогда

 
   
 
 
 

[Цитировать]

Все или ничего: Неизвестная история агента 007 / Everything or Nothing: The Untold Story of 007
Дата/Год выпуска: 2012
Страна: Великобритания
Жанр: Документальный
Продолжительность: 01:30:52
Перевод: Профессиональный (многоголосый закадровый)
Русские субтитры: нет
Оригинальная аудиодорожка: нет
Режиссер: Стивен Райли / Stevan Riley
Телеканал: 1 канал
Описание: История о трех мужчинах, имеющих общую мечту, — о продюсерах бондианы Альберта Р. Брокколи, Гарри Зальцмана и автора Яна Флеминга. Это история интригует и вдохновляет, и показывает, что стоит за самой длинной в мире франшизой, начиная с 1962 года. Благодаря беспрецедентному доступу к главным актерам и к огромному архиву Eon Productions, это первая картина, которая рассказывает историю изнутри очень необычным образом. В центре повествования - трое мужчин с общей мечтой: продюсеры "бондианы" Альберт Р. Брокколи, Гарри Зальцман и писатель Ян Флеминг.
Доп. информация: Рип с канала Первый HD. Из видеоряда удален логотип канала, остались послерекламные вставки с названием фильма.
Сэмпл: http://multi-up.com/1043019
качество: HDTVRip
формат: AVI
Видео: MPEG4, XviD, 720x400 (16/9), 25.000 fps, 1 971 Kbps (0.274 bit/pixel)
Аудио: AC-3, 48.0 KHz, 2 ch, 192 Kbps, CBR

MediaInfo

Общее
Полное имя : K:\Все или ничего. Неизвестная история агента 007.avi
Формат : AVI
Формат/Информация : Audio Video Interleave
Размер файла : 1,38 Гбайт
Продолжительность : 1 ч. 30 м.
Общий поток : 2172 Кбит/сек
Название фильма : Все или ничего: Неизвестная история агента 007 / Everything or Nothing: The Untold Story of 007 (2012)
Программа кодирования : VirtualDubMod 1.5.10.2 (build 2540/release)
Библиотека кодирования : VirtualDubMod build 2540/release
Правообладатель : miha2154
Видео
Идентификатор : 0
Формат : MPEG-4 Visual
Профиль формата : Advanced Simple@L5
Параметр BVOP формата : 1
Параметр QPel формата : Нет
Параметр GMC формата : Без точки перехода
Параметр матрицы формата : Выборочная
Идентификатор кодека : XVID
Идентификатор кодека/Подсказка : XviD
Продолжительность : 1 ч. 30 м.
Битрейт : 1971 Кбит/сек
Ширина : 720 пикселей
Высота : 400 пикселей
Соотношение сторон : 16:9
Частота кадров : 25,000 кадров/сек
Цветовое пространство : YUV
Субдискретизация насыщенности : 4:2:0
Битовая глубина : 8 бит
Тип развёртки : Прогрессивная
Метод сжатия : С потерями
Бит/(Пиксели*Кадры) : 0.274
Размер потока : 1,25 Гбайт (91%)
Библиотека кодирования : XviD 65
Аудио
Идентификатор : 1
Формат : AC-3
Формат/Информация : Audio Coding 3
Расширение режима : CM (complete main)
Параметр Endianness формата : Big
Идентификатор кодека : 2000
Продолжительность : 1 ч. 30 м.
Вид битрейта : Постоянный
Битрейт : 192 Кбит/сек
Каналы : 2 канала
Расположение каналов : Front: L R
Частота : 48,0 КГц
Битовая глубина : 16 бит
Метод сжатия : С потерями
Размер потока : 125 Мбайт (9%)
Выравнивание : Разделение по промежуткам
Продолжительность промежутка : 40 мс. (1,00 видеокадр)
Время предзагрузки промежутка : 500 мс.
Заголовок : Профессиональный (многоголосый закадровый) 1 канал

Скриншоты


[teatrix.ru].t20888.torrent 
Торрент: Зарегистрирован [ 2016-03-20 00:58 ] · E6007F8836E09C0923008DAE2BFC06AF2DFC25AF

Скачать .torrent

Скачать

14 KB

Статус: проверено
Скачан: 0 раз
Размер: 1.38 GB
terms.php



Показать сообщения:    

Текущее время: 07-Дек 23:19

Часовой пояс: UTC + 3


Вы не можете начинать темы
Вы не можете отвечать на сообщения
Вы не можете редактировать свои сообщения
Вы не можете удалять свои сообщения
Вы не можете голосовать в опросах
Вы не можете прикреплять файлы к сообщениям
Вы можете скачивать файлы