(Classical) John Pickard - The Flight of Icarus; The Spindle of Necessity; Channel Firing - Christian Lindberg, Norrkoping Symphony Orchestra, Martyn Brabbins - 2008, FLAC (image+.cue) lossless


 

[Цитировать]

John Pickard - The Flight of Icarus; The Spindle of Necessity; Channel Firing - Christian Lindberg, Norrköping Symphony Orchestra, Martyn Brabbins
Жанр: Classical
Страна-производитель диска: Sweden
Год издания диска: 2008
Издатель (лейбл): BIS
Номер по каталогу: BIS-CD-1578
Дата записи: 2006, 2007
Аудиокодек: FLAC
Тип рипа: image+.cue
Битрейт аудио: lossless
Продолжительность: 66:24
Источник: собственный рип
Наличие сканов в содержимом раздачи: да
Треклист:
John Pickard (b. 1963)
[1] The Flight of Icarus (1990)
[2] The Spindle of Necessity (1998) for trombone, percussion and strings
[3] Channel Firing (1993)
Исполнители:
Christian Lindberg trombone
Norrköping Symphony Orchestra
Martyn Brabbins
conductor

Лог создания рипа

Exact Audio Copy V1.0 beta 3 from 29. August 2011
EAC extraction logfile from 27. March 2015, 1:47
Christian Lindberg, Norrköping Symphony Orchestra, Martyn Brabbins / Pickard - The Flight of Icarus; The Spindle of Necessity; Channel Firing
Used drive : HL-DT-STDVDRAM GU70N Adapter: 0 ID: 0
Read mode : Secure
Utilize accurate stream : Yes
Defeat audio cache : Yes
Make use of C2 pointers : No
Read offset correction : 48
Overread into Lead-In and Lead-Out : No
Fill up missing offset samples with silence : Yes
Delete leading and trailing silent blocks : No
Null samples used in CRC calculations : Yes
Used interface : Native Win32 interface for Win NT & 2000
Used output format : User Defined Encoder
Selected bitrate : 128 kBit/s
Quality : High
Add ID3 tag : No
Command line compressor : C:\Program Files (x86)\Exact Audio Copy\Flac\flac.exe
Additional command line options : -V -8 -T "Date=%year%" -T "Genre=%genre%" %source%
TOC of the extracted CD
Track | Start | Length | Start sector | End sector
---------------------------------------------------------
1 | 0:00.00 | 20:33.37 | 0 | 92511
2 | 20:33.37 | 20:21.01 | 92512 | 184087
3 | 40:54.38 | 25:29.37 | 184088 | 298799
Range status and errors
Selected range
Filename C:\temp\BIS-CD-1578 - Pickard - The Flight of Icarus\Pickard - The Flight of Icarus; The Spindle of Necessity; Channel Firing.wav
Peak level 99.2 %
Extraction speed 2.1 X
Range quality 99.9 %
Test CRC 4F08B245
Copy CRC 4F08B245
Copy OK
No errors occurred
AccurateRip summary
Track 1 accurately ripped (confidence 4) [7AD522AF] (AR v2)
Track 2 accurately ripped (confidence 4) [E7229B16] (AR v2)
Track 3 accurately ripped (confidence 4) [C1A13E8C] (AR v2)
All tracks accurately ripped
End of status report
==== Log checksum 100EFF7A87C8B449AC92778F05CAF779BCC7EA19D826A630D7DE24F8D8C7E5F9 ====



Показать сообщения:    

Текущее время: 25-Янв 00:21

Часовой пояс: UTC + 3


Вы не можете начинать темы
Вы не можете отвечать на сообщения
Вы не можете редактировать свои сообщения
Вы не можете удалять свои сообщения
Вы не можете голосовать в опросах
Вы не можете прикреплять файлы к сообщениям
Вы не можете скачивать файлы