(Opera) Vincenzo Bellini - I Puritani [Highlights] / Винченцо Беллини - Пуритане [Фрагменты] (Roberto Paternostro, Georgi Robev, Emil Tabakov; Lucia Aliberti, Michele Pertusi, Carlos Аlvarez, Giuseppe Sabbatini) - 1995, FLAC (tracks+.cue), lossless


 

[Цитировать]

Vincenzo Bellini - I Puritani / Винченцо Беллини - Пуритане (Roberto Paternostro, Georgi Robev, Emil Tabakov; Lucia Aliberti, Michele Pertusi, Carlos Álvarez, Giuseppe Sabbatini)
Жанр: Opera
Страна-производитель диска: Германия
Год издания диска: 1995
Издатель (лейбл): Laserlight Classics
Дата записи: 1994
Аудиокодек: FLAC
Тип рипа: tracks+.cue
Битрейт аудио: lossless
Продолжительность: 60:34
Источник: релизер (Guillermo)
Исполнители:
Elvira - Lucia Aliberti,
Giorgio - Michele Pertusi,
Riccardo - Carlos Álvarez,
Arturo - Giuseppe Sabbatini.
Roberto Paternostro, Conductor (3, 4, 7),
Berlin Radio Symphony Orchestra,
Georgi Robev, Conductor (1, 2, 5),
Emil Tabakov, Conductor (6, 8),
Sofia Symphony Orchestra,
Bulgarian National Choir.

Лог создания рипа

Exact Audio Copy V1.0 beta 3 from 29. August 2011
EAC extraction logfile from 10. April 2015, 15:33
Vincenzo Bellini / I Puritani
Used drive : HL-DT-STDVDRAM GH24NSC0 Adapter: 3 ID: 0
Read mode : Secure
Utilize accurate stream : Yes
Defeat audio cache : Yes
Make use of C2 pointers : Yes
Read offset correction : 6
Overread into Lead-In and Lead-Out : No
Fill up missing offset samples with silence : Yes
Delete leading and trailing silent blocks : Yes
Null samples used in CRC calculations : Yes
Used interface : Native Win32 interface for Win NT & 2000
Gap handling : Appended to previous track
Used output format : User Defined Encoder
Selected bitrate : 768 kBit/s
Quality : High
Add ID3 tag : No
Command line compressor : C:\Program Files (x86)\Exact Audio Copy\FLAC\FLAC.EXE
Additional command line options : -8 -V -T "ARTIST=%artist%" -T "TITLE=%title%" -T "ALBUM=%albumtitle%" -T "DATE=%year%" -T "TRACKNUMBER=%tracknr%" -T "GENRE=%genre%" -T "PERFORMER=%albuminterpret%" -T "COMPOSER=%composer%" %haslyrics%--tag-from-file=LYRICS="%lyricsfile%"%haslyrics% -T "ALBUMARTIST=%albumartist%" -T "DISCNUMBER=%cdnumber%" -T "TOTALDISCS=%totalcds%" -T "TOTALTRACKS=%numtracks%" -T "COMMENT=%comment%" %source% -o %dest%
TOC of the extracted CD
Track | Start | Length | Start sector | End sector
---------------------------------------------------------
1 | 0:00.37 | 3:59.65 | 37 | 18026
2 | 4:00.27 | 5:28.10 | 18027 | 42636
3 | 9:28.37 | 3:50.00 | 42637 | 59886
4 | 13:18.37 | 5:34.00 | 59887 | 84936
5 | 18:52.37 | 5:49.00 | 84937 | 111111
6 | 24:41.37 | 5:22.00 | 111112 | 135261
7 | 30:03.37 | 16:26.00 | 135262 | 209211
8 | 46:29.37 | 14:05.28 | 209212 | 272614
Track 1
Filename f:\Users\Guillermo\Desktop\EAC convertidos\01 Introduzione.wav
Pre-gap length 0:00:02.49
Peak level 47.5 %
Extraction speed 1.7 X
Track quality 100.0 %
Test CRC 278EF21A
Copy CRC 278EF21A
Copy OK
Track 2
Filename f:\Users\Guillermo\Desktop\EAC convertidos\02 A1 Introduzione e Coro- ''All'erta! All'erta!''.wav
Pre-gap length 0:00:02.00
Peak level 95.4 %
Extraction speed 2.0 X
Track quality 100.0 %
Test CRC 1746B18C
Copy CRC 1746B18C
Copy OK
Track 3
Filename f:\Users\Guillermo\Desktop\EAC convertidos\03 A1 Aria- ''A te, o cara, amor talora'' Arturo.wav
Pre-gap length 0:00:02.00
Peak level 55.2 %
Extraction speed 2.0 X
Track quality 100.0 %
Test CRC E67D42FC
Copy CRC E67D42FC
Copy OK
Track 4
Filename f:\Users\Guillermo\Desktop\EAC convertidos\04 A1 Aria- ''Son vergin vezzosa'' Elvira.wav
Pre-gap length 0:00:02.00
Peak level 85.7 %
Extraction speed 2.3 X
Track quality 100.0 %
Test CRC 3983D1CB
Copy CRC 3983D1CB
Copy OK
Track 5
Filename f:\Users\Guillermo\Desktop\EAC convertidos\05 A2 Introduzione e Coro- ''Ah...dolor! Ah terror!''.wav
Pre-gap length 0:00:02.00
Peak level 95.4 %
Extraction speed 2.5 X
Track quality 100.0 %
Test CRC E1866B3C
Copy CRC E1866B3C
Copy OK
Track 6
Filename f:\Users\Guillermo\Desktop\EAC convertidos\06 A2 Aria e Coro- ''Cinta di fiori e col ben crin disciotto''.wav
Pre-gap length 0:00:02.00
Peak level 97.7 %
Extraction speed 2.7 X
Track quality 100.0 %
Test CRC C6338785
Copy CRC C6338785
Copy OK
Track 7
Filename f:\Users\Guillermo\Desktop\EAC convertidos\07 A2 Aria- ''Orendetemi la speme'' - ''Vien, diletto'' Elvira.wav
Pre-gap length 0:00:02.00
Peak level 97.7 %
Extraction speed 3.3 X
Track quality 100.0 %
Test CRC ADB1C70C
Copy CRC ADB1C70C
Copy OK
Track 8
Filename f:\Users\Guillermo\Desktop\EAC convertidos\08 A2 Duetto- ''Il rival salvar tu dei'' - ''Suoni la tromba''.wav
Pre-gap length 0:00:02.00
Peak level 100.0 %
Extraction speed 3.7 X
Track quality 100.0 %
Test CRC B4212656
Copy CRC B4212656
Copy OK
No errors occurred
End of status report
==== Log checksum 884115829A5055008AFE94E8FE5A7B0172776E9BB1C9CE0C295A4B113044DE44 ====

Содержание индексной карты (.CUE)

REM DISCID 580E3208
REM COMMENT "ExactAudioCopy v1.0b3"
FILE "01 Introduzione.wav" WAVE
TRACK 01 AUDIO
PREGAP 00:00:37
INDEX 01 00:00:00
TRACK 02 AUDIO
INDEX 00 03:57:65
FILE "02 A1 Introduzione e Coro- ''All'erta! All'erta!''.wav" WAVE
INDEX 01 00:00:00
TRACK 03 AUDIO
INDEX 00 05:26:10
FILE "03 A1 Aria- ''A te, o cara, amor talora'' Arturo.wav" WAVE
INDEX 01 00:00:00
TRACK 04 AUDIO
INDEX 00 03:48:00
FILE "04 A1 Aria- ''Son vergin vezzosa'' Elvira.wav" WAVE
INDEX 01 00:00:00
TRACK 05 AUDIO
INDEX 00 05:32:00
FILE "05 A2 Introduzione e Coro- ''Ah...dolor! Ah terror!''.wav" WAVE
INDEX 01 00:00:00
TRACK 06 AUDIO
INDEX 00 05:47:00
FILE "06 A2 Aria e Coro- ''Cinta di fiori e col ben crin disciotto''.wav" WAVE
INDEX 01 00:00:00
TRACK 07 AUDIO
INDEX 00 05:20:00
FILE "07 A2 Aria- ''Orendetemi la speme'' - ''Vien, diletto'' Elvira.wav" WAVE
INDEX 01 00:00:00
TRACK 08 AUDIO
INDEX 00 16:24:00
FILE "08 A2 Duetto- ''Il rival salvar tu dei'' - ''Suoni la tromba''.wav" WAVE
INDEX 01 00:00:00

Треклист

1. Introduzione
Act I:
2. Coro: ""All'erta! All'erta!"
3. Aria: "A te, o cara, amor talora"
4. Aria: "Son vergin vezzosa"
Act II:
5. Introduzione e Coro: "Ah...dolor! Ah terror!"
6. Aria e Coro: "Cinta di fiori e col ben crin disciotto"
7. Aria: "Orendetemi la speme - Vien, diletto"
8. Duetto: "Il rival salvar tu dei - Suoni la tromba"



Показать сообщения:    

Текущее время: 22-Янв 04:44

Часовой пояс: UTC + 3


Вы не можете начинать темы
Вы не можете отвечать на сообщения
Вы не можете редактировать свои сообщения
Вы не можете удалять свои сообщения
Вы не можете голосовать в опросах
Вы не можете прикреплять файлы к сообщениям
Вы не можете скачивать файлы