(Classical, Chamber) Francis Poulenc: Melodies - Les Anges Musiciens (Performed by Sophie Karthauser, soprano, Eugene Asti, piano) - 2014, FLAC (tracks+.cue), lossless


 

[Цитировать]

Francis Poulenc: Melodies - Les Anges Musiciens (Performed by Sophie Karthäuser, soprano, Eugene Asti, piano)
Жанр: Classical, Chamber
Страна-производитель диска: Франция
Год издания диска: 2014
Издатель (лейбл): Harmonia Mundi
Дата записи: 2013
Аудиокодек: FLAC
Тип рипа: tracks+.cue
Битрейт аудио: lossless
Продолжительность: 65:52
Источник: релизер (peotuvave)
Исполнители:
Sophie Karthäuser, soprano,
Eugene Asti, piano.
Recorded at Siemens-Villa, Berlin, June 2013.

Лог создания рипа

Exact Audio Copy V1.0 beta 3 from 29. August 2011
EAC extraction logfile from 3. April 2015, 17:31
Francis Poulenc (Sophie Karthäuser) / Les anges musiciens...
Used drive : ASUS DRW-2014L1T Adapter: 3 ID: 0
Read mode : Secure
Utilize accurate stream : Yes
Defeat audio cache : Yes
Make use of C2 pointers : No
Read offset correction : 6
Overread into Lead-In and Lead-Out : No
Fill up missing offset samples with silence : Yes
Delete leading and trailing silent blocks : No
Null samples used in CRC calculations : Yes
Used interface : Native Win32 interface for Win NT & 2000
Gap handling : Appended to previous track
Used output format : User Defined Encoder
Selected bitrate : 1024 kBit/s
Quality : High
Add ID3 tag : No
Command line compressor : C:\Program Files (x86)\Exact Audio Copy\Flac\flac.exe
Additional command line options : -8 -V -T "ARTIST=%artist%" -T "TITLE=%title%" -T "ALBUM=%albumtitle%" -T "DATE=%year%" -T "TRACKNUMBER=%tracknr%" -T "GENRE=%genre%" -T "PERFORMER=%albuminterpret%" -T "COMPOSER=%composer%" %haslyrics%--tag-from-file=LYRICS="%lyricsfile%"%haslyrics% -T "ALBUMARTIST=%albumartist%" -T "DISCNUMBER=%cdnumber%" -T "TOTALDISCS=%totalcds%" -T "TOTALTRACKS=%numtracks%" -T "COMMENT=%comment%" %source% -o %dest%
TOC of the extracted CD
Track | Start | Length | Start sector | End sector
---------------------------------------------------------
1 | 0:00.00 | 2:46.14 | 0 | 12463
2 | 2:46.14 | 1:01.41 | 12464 | 17079
3 | 3:47.55 | 2:53.34 | 17080 | 30088
4 | 6:41.14 | 0:55.40 | 30089 | 34253
5 | 7:36.54 | 3:02.49 | 34254 | 47952
6 | 10:39.28 | 1:58.67 | 47953 | 56869
7 | 12:38.20 | 0:51.07 | 56870 | 60701
8 | 13:29.27 | 0:40.20 | 60702 | 63721
9 | 14:09.47 | 1:47.39 | 63722 | 71785
10 | 15:57.11 | 1:41.38 | 71786 | 79398
11 | 17:38.49 | 1:19.41 | 79399 | 85364
12 | 18:58.15 | 2:19.50 | 85365 | 95839
13 | 21:17.65 | 1:54.48 | 95840 | 104437
14 | 23:12.38 | 1:02.26 | 104438 | 109113
15 | 24:14.64 | 0:59.13 | 109114 | 113551
16 | 25:14.02 | 0:36.67 | 113552 | 116318
17 | 25:50.69 | 1:22.20 | 116319 | 122488
18 | 27:13.14 | 0:53.34 | 122489 | 126497
19 | 28:06.48 | 1:20.38 | 126498 | 132535
20 | 29:27.11 | 2:57.13 | 132536 | 145823
21 | 32:24.24 | 3:12.20 | 145824 | 160243
22 | 35:36.44 | 1:32.38 | 160244 | 167181
23 | 37:09.07 | 2:14.32 | 167182 | 177263
24 | 39:23.39 | 1:45.17 | 177264 | 185155
25 | 41:08.56 | 2:37.63 | 185156 | 196993
26 | 43:46.44 | 2:01.42 | 196994 | 206110
27 | 45:48.11 | 2:28.22 | 206111 | 217232
28 | 48:16.33 | 1:36.39 | 217233 | 224471
29 | 49:52.72 | 2:02.23 | 224472 | 233644
30 | 51:55.20 | 1:01.72 | 233645 | 238291
31 | 52:57.17 | 1:33.63 | 238292 | 245329
32 | 54:31.05 | 0:30.64 | 245330 | 247643
33 | 55:01.69 | 1:27.44 | 247644 | 254212
34 | 56:29.38 | 1:05.50 | 254213 | 259137
35 | 57:35.13 | 2:25.62 | 259138 | 270074
36 | 60:01.00 | 2:38.14 | 270075 | 281938
37 | 62:39.14 | 3:31.15 | 281939 | 297778
Track 1
Filename F:\CD Rips\Francis Poulenc (Sophie Karthäuser) - Les anges musiciens... (2014) [FLAC]\01 - Deux poèmes de Louis Aragon - I. C..wav
Pre-gap length 0:00:02.00
Peak level 60.4 %
Extraction speed 2.5 X
Track quality 100.0 %
Test CRC 55298294
Copy CRC 55298294
Accurately ripped (confidence 3) [1660FD9D] (AR v2)
Copy OK
Track 2
Filename F:\CD Rips\Francis Poulenc (Sophie Karthäuser) - Les anges musiciens... (2014) [FLAC]\02 - Deux poèmes de Louis Aragon - II. Fêtes galantes.wav
Peak level 96.4 %
Extraction speed 2.0 X
Track quality 100.0 %
Test CRC E3B44DF3
Copy CRC E3B44DF3
Accurately ripped (confidence 3) [5A28739E] (AR v2)
Copy OK
Track 3
Filename F:\CD Rips\Francis Poulenc (Sophie Karthäuser) - Les anges musiciens... (2014) [FLAC]\03 - Bleuet FP 102 (Guillaume Apollinaire).wav
Peak level 87.8 %
Extraction speed 2.8 X
Track quality 100.0 %
Test CRC 9C95E195
Copy CRC 9C95E195
Accurately ripped (confidence 3) [B5CA9CE6] (AR v2)
Copy OK
Track 4
Filename F:\CD Rips\Francis Poulenc (Sophie Karthäuser) - Les anges musiciens... (2014) [FLAC]\04 - Voyage à Paris FP 107 no. 4 (Guillaume Apollinaire) - no. 4 de ''Banalités''.wav
Peak level 76.9 %
Extraction speed 2.1 X
Track quality 100.0 %
Test CRC 52BF854A
Copy CRC 52BF854A
Accurately ripped (confidence 3) [33D2ACB6] (AR v2)
Copy OK
Track 5
Filename F:\CD Rips\Francis Poulenc (Sophie Karthäuser) - Les anges musiciens... (2014) [FLAC]\05 - Montparnasse FP 127 no. 1 (Guillaume Apollinaire) - no. 1 de ''Deux mélodies de Guillaume Apollinaire''.wav
Peak level 72.6 %
Extraction speed 3.1 X
Track quality 100.0 %
Test CRC 4BE68EBA
Copy CRC 4BE68EBA
Accurately ripped (confidence 3) [901548A5] (AR v2)
Copy OK
Track 6
Filename F:\CD Rips\Francis Poulenc (Sophie Karthäuser) - Les anges musiciens... (2014) [FLAC]\06 - Hôtel FP 107 no. 2 (Guillaume Apollinaire) - no. 2 de ''Banalités''.wav
Peak level 33.1 %
Extraction speed 2.9 X
Track quality 100.0 %
Test CRC 2E80EECA
Copy CRC 2E80EECA
Accurately ripped (confidence 3) [8D16481A] (AR v2)
Copy OK
Track 7
Filename F:\CD Rips\Francis Poulenc (Sophie Karthäuser) - Les anges musiciens... (2014) [FLAC]\07 - Trois poèmes de Louise Lalanne FP 57 - I. Le présent (Marie Laurencin).wav
Peak level 82.3 %
Extraction speed 1.0 X
Track quality 99.7 %
Test CRC 7333D811
Copy CRC 7333D811
Accurately ripped (confidence 3) [BE32D055] (AR v2)
Copy OK
Track 8
Filename F:\CD Rips\Francis Poulenc (Sophie Karthäuser) - Les anges musiciens... (2014) [FLAC]\08 - Trois poèmes de Louise Lalanne FP 57 - II. Chanson (Guillaume Apollinaire).wav
Peak level 79.8 %
Extraction speed 2.0 X
Track quality 100.0 %
Test CRC 9A973153
Copy CRC 9A973153
Accurately ripped (confidence 3) [4DF39E7B] (AR v2)
Copy OK
Track 9
Filename F:\CD Rips\Francis Poulenc (Sophie Karthäuser) - Les anges musiciens... (2014) [FLAC]\09 - Trois poèmes de Louise Lalanne FP 57 - III. Hier (Marie Laurencin).wav
Peak level 68.4 %
Extraction speed 1.6 X
Track quality 99.9 %
Test CRC 67A7D3FF
Copy CRC 67A7D3FF
Accurately ripped (confidence 3) [B30B27F7] (AR v2)
Copy OK
Track 10
Filename F:\CD Rips\Francis Poulenc (Sophie Karthäuser) - Les anges musiciens... (2014) [FLAC]\10 - Ce doux petit visage FP 99 (Paul Eluard).wav
Peak level 49.1 %
Extraction speed 3.0 X
Track quality 100.0 %
Test CRC 0A1EC379
Copy CRC 0A1EC379
Accurately ripped (confidence 3) [4AEFA16E] (AR v2)
Copy OK
Track 11
Filename F:\CD Rips\Francis Poulenc (Sophie Karthäuser) - Les anges musiciens... (2014) [FLAC]\11 - Main dominée par le coeur FP 135 (Paul Eluard).wav
Peak level 47.5 %
Extraction speed 2.9 X
Track quality 100.0 %
Test CRC 9C588C03
Copy CRC 9C588C03
Accurately ripped (confidence 3) [0DC9C911] (AR v2)
Copy OK
Track 12
Filename F:\CD Rips\Francis Poulenc (Sophie Karthäuser) - Les anges musiciens... (2014) [FLAC]\12 - Tel jour telle nuit FP 86 (Paul Eluard) - I. Bonne journée.wav
Peak level 64.1 %
Extraction speed 3.5 X
Track quality 100.0 %
Test CRC 3C013FDA
Copy CRC 3C013FDA
Accurately ripped (confidence 3) [6BBE18FF] (AR v2)
Copy OK
Track 13
Filename F:\CD Rips\Francis Poulenc (Sophie Karthäuser) - Les anges musiciens... (2014) [FLAC]\13 - Tel jour telle nuit FP 86 (Paul Eluard) - II. Une ruine coquille vide.wav
Peak level 44.3 %
Extraction speed 3.4 X
Track quality 100.0 %
Test CRC 4DB843ED
Copy CRC 4DB843ED
Accurately ripped (confidence 3) [A25E5399] (AR v2)
Copy OK
Track 14
Filename F:\CD Rips\Francis Poulenc (Sophie Karthäuser) - Les anges musiciens... (2014) [FLAC]\14 - Tel jour telle nuit FP 86 (Paul Eluard) - III. Le front comme un drapeau perdu.wav
Peak level 96.7 %
Extraction speed 2.8 X
Track quality 100.0 %
Test CRC 2503ADEE
Copy CRC 2503ADEE
Accurately ripped (confidence 3) [5B381CE5] (AR v2)
Copy OK
Track 15
Filename F:\CD Rips\Francis Poulenc (Sophie Karthäuser) - Les anges musiciens... (2014) [FLAC]\15 - Tel jour telle nuit FP 86 (Paul Eluard) - IV. Une roulotte couverte en tuiles.wav
Peak level 62.5 %
Extraction speed 2.8 X
Track quality 100.0 %
Test CRC 69B4E53E
Copy CRC 69B4E53E
Accurately ripped (confidence 3) [7024F844] (AR v2)
Copy OK
Track 16
Filename F:\CD Rips\Francis Poulenc (Sophie Karthäuser) - Les anges musiciens... (2014) [FLAC]\16 - Tel jour telle nuit FP 86 (Paul Eluard) - V. A toutes brides.wav
Peak level 94.9 %
Extraction speed 2.3 X
Track quality 100.0 %
Test CRC C8C0D6C9
Copy CRC C8C0D6C9
Accurately ripped (confidence 3) [1CF9F5F5] (AR v2)
Copy OK
Track 17
Filename F:\CD Rips\Francis Poulenc (Sophie Karthäuser) - Les anges musiciens... (2014) [FLAC]\17 - Tel jour telle nuit FP 86 (Paul Eluard) - VI. Une herbe pauvre.wav
Peak level 34.2 %
Extraction speed 3.2 X
Track quality 100.0 %
Test CRC 8FBD1F80
Copy CRC 8FBD1F80
Accurately ripped (confidence 3) [80AF76F0] (AR v2)
Copy OK
Track 18
Filename F:\CD Rips\Francis Poulenc (Sophie Karthäuser) - Les anges musiciens... (2014) [FLAC]\18 - Tel jour telle nuit FP 86 (Paul Eluard) - VII. Je n'ai envie que de t'aimer.wav
Peak level 53.8 %
Extraction speed 1.3 X
Track quality 99.8 %
Test CRC 1701176A
Copy CRC 1701176A
Accurately ripped (confidence 3) [6DB6BDA9] (AR v2)
Copy OK
Track 19
Filename F:\CD Rips\Francis Poulenc (Sophie Karthäuser) - Les anges musiciens... (2014) [FLAC]\19 - Tel jour telle nuit FP 86 (Paul Eluard) - VIII. Figure de force brûlante et farouche.wav
Peak level 96.8 %
Extraction speed 3.3 X
Track quality 100.0 %
Test CRC 421AB64C
Copy CRC 421AB64C
Accurately ripped (confidence 3) [BDE171C3] (AR v2)
Copy OK
Track 20
Filename F:\CD Rips\Francis Poulenc (Sophie Karthäuser) - Les anges musiciens... (2014) [FLAC]\20 - Tel jour telle nuit FP 86 (Paul Eluard) - IX. Nous avons fait la nuit.wav
Peak level 76.1 %
Extraction speed 4.1 X
Track quality 100.0 %
Test CRC F18385DE
Copy CRC F18385DE
Accurately ripped (confidence 3) [B8E54AE8] (AR v2)
Copy OK
Track 21
Filename F:\CD Rips\Francis Poulenc (Sophie Karthäuser) - Les anges musiciens... (2014) [FLAC]\21 - Vocalise-Etude FP 44.wav
Peak level 96.8 %
Extraction speed 4.3 X
Track quality 100.0 %
Test CRC A1B7CFCF
Copy CRC A1B7CFCF
Accurately ripped (confidence 3) [D7C32D27] (AR v2)
Copy OK
Track 22
Filename F:\CD Rips\Francis Poulenc (Sophie Karthäuser) - Les anges musiciens... (2014) [FLAC]\22 - Fiançailles pour rire FP 101 (Louise de Vilmorin) - I. La Dame d'André.wav
Peak level 71.9 %
Extraction speed 3.7 X
Track quality 100.0 %
Test CRC 07B74706
Copy CRC 07B74706
Accurately ripped (confidence 3) [EBFE4747] (AR v2)
Copy OK
Track 23
Filename F:\CD Rips\Francis Poulenc (Sophie Karthäuser) - Les anges musiciens... (2014) [FLAC]\23 - Fiançailles pour rire FP 101 (Louise de Vilmorin) - II. Dans l'herbe.wav
Peak level 71.5 %
Extraction speed 2.3 X
Track quality 99.9 %
Test CRC ACBAE69D
Copy CRC ACBAE69D
Accurately ripped (confidence 3) [D3B7D980] (AR v2)
Copy OK
Track 24
Filename F:\CD Rips\Francis Poulenc (Sophie Karthäuser) - Les anges musiciens... (2014) [FLAC]\24 - Fiançailles pour rire FP 101 (Louise de Vilmorin) - III. Il vole.wav
Peak level 85.7 %
Extraction speed 2.1 X
Track quality 99.8 %
Test CRC D4D57330
Copy CRC D4D57330
Accurately ripped (confidence 3) [E23A44FC] (AR v2)
Copy OK
Track 25
Filename F:\CD Rips\Francis Poulenc (Sophie Karthäuser) - Les anges musiciens... (2014) [FLAC]\25 - Fiançailles pour rire FP 101 (Louise de Vilmorin) - IV. Mon cadavre est doux comme un gant.wav
Peak level 53.9 %
Extraction speed 4.4 X
Track quality 100.0 %
Test CRC A407CACC
Copy CRC A407CACC
Accurately ripped (confidence 3) [1A96FDB2] (AR v2)
Copy OK
Track 26
Filename F:\CD Rips\Francis Poulenc (Sophie Karthäuser) - Les anges musiciens... (2014) [FLAC]\26 - Fiançailles pour rire FP 101 (Louise de Vilmorin) - V. Violon.wav
Peak level 63.8 %
Extraction speed 3.4 X
Track quality 100.0 %
Test CRC BB32EA48
Copy CRC BB32EA48
Accurately ripped (confidence 3) [0E422118] (AR v2)
Copy OK
Track 27
Filename F:\CD Rips\Francis Poulenc (Sophie Karthäuser) - Les anges musiciens... (2014) [FLAC]\27 - Fiançailles pour rire FP 101 (Louise de Vilmorin) - VI. Fleurs.wav
Peak level 44.0 %
Extraction speed 4.3 X
Track quality 100.0 %
Test CRC 2AE71799
Copy CRC 2AE71799
Accurately ripped (confidence 3) [41DACAFE] (AR v2)
Copy OK
Track 28
Filename F:\CD Rips\Francis Poulenc (Sophie Karthäuser) - Les anges musiciens... (2014) [FLAC]\28 - Fancy FP 174 (William Shakespeare).wav
Peak level 40.0 %
Extraction speed 4.1 X
Track quality 100.0 %
Test CRC A6B87768
Copy CRC A6B87768
Accurately ripped (confidence 3) [2A5D40CF] (AR v2)
Copy OK
Track 29
Filename F:\CD Rips\Francis Poulenc (Sophie Karthäuser) - Les anges musiciens... (2014) [FLAC]\29 - La courte paille FP 178 (Maurice Carême) - I. Le sommeil.wav
Peak level 56.9 %
Extraction speed 4.4 X
Track quality 100.0 %
Test CRC 328C2E53
Copy CRC 328C2E53
Accurately ripped (confidence 3) [EA350A8E] (AR v2)
Copy OK
Track 30
Filename F:\CD Rips\Francis Poulenc (Sophie Karthäuser) - Les anges musiciens... (2014) [FLAC]\30 - La courte paille FP 178 (Maurice Carême) - II. Quelle aventure !.wav
Peak level 94.9 %
Extraction speed 3.6 X
Track quality 100.0 %
Test CRC 4FF73225
Copy CRC 4FF73225
Accurately ripped (confidence 3) [D9124778] (AR v2)
Copy OK
Track 31
Filename F:\CD Rips\Francis Poulenc (Sophie Karthäuser) - Les anges musiciens... (2014) [FLAC]\31 - La courte paille FP 178 (Maurice Carême) - III. La reine de coeur.wav
Peak level 63.9 %
Extraction speed 4.2 X
Track quality 100.0 %
Test CRC 0CCED8D1
Copy CRC 0CCED8D1
Accurately ripped (confidence 3) [577F5E02] (AR v2)
Copy OK
Track 32
Filename F:\CD Rips\Francis Poulenc (Sophie Karthäuser) - Les anges musiciens... (2014) [FLAC]\32 - La courte paille FP 178 (Maurice Carême) - IV. Ba, Be, Bi, Bo, Bu.wav
Peak level 75.6 %
Extraction speed 1.1 X
Track quality 99.6 %
Test CRC 77D3EAF7
Copy CRC 77D3EAF7
Accurately ripped (confidence 3) [FCC2B8E0] (AR v2)
Copy OK
Track 33
Filename F:\CD Rips\Francis Poulenc (Sophie Karthäuser) - Les anges musiciens... (2014) [FLAC]\33 - La courte paille FP 178 (Maurice Carême) - V. Les anges musiciens.wav
Peak level 64.1 %
Extraction speed 4.1 X
Track quality 100.0 %
Test CRC E1936AD7
Copy CRC E1936AD7
Accurately ripped (confidence 3) [E2BA8673] (AR v2)
Copy OK
Track 34
Filename F:\CD Rips\Francis Poulenc (Sophie Karthäuser) - Les anges musiciens... (2014) [FLAC]\34 - La courte paille FP 178 (Maurice Carême) - VI. Le carafon.wav
Peak level 64.1 %
Extraction speed 3.9 X
Track quality 100.0 %
Test CRC 6B526BFF
Copy CRC 6B526BFF
Accurately ripped (confidence 3) [0B78F056] (AR v2)
Copy OK
Track 35
Filename F:\CD Rips\Francis Poulenc (Sophie Karthäuser) - Les anges musiciens... (2014) [FLAC]\35 - La courte paille FP 178 (Maurice Carême) - VII. Lune d'Avril.wav
Peak level 90.6 %
Extraction speed 4.9 X
Track quality 100.0 %
Test CRC CF92BCA7
Copy CRC CF92BCA7
Accurately ripped (confidence 3) [2AA9F851] (AR v2)
Copy OK
Track 36
Filename F:\CD Rips\Francis Poulenc (Sophie Karthäuser) - Les anges musiciens... (2014) [FLAC]\36 - Deux chansons pour Yvonne Printemps - A sa guitare FP 79 (Pierre de Ronsard).wav
Peak level 56.2 %
Extraction speed 5.1 X
Track quality 100.0 %
Test CRC 60B3558A
Copy CRC 60B3558A
Accurately ripped (confidence 3) [68D4BB46] (AR v2)
Copy OK
Track 37
Filename F:\CD Rips\Francis Poulenc (Sophie Karthäuser) - Les anges musiciens... (2014) [FLAC]\37 - Deux chansons pour Yvonne Printemps - Les chansons de l'amour FP 106 (Jean Anouilh).wav
Peak level 73.4 %
Extraction speed 5.4 X
Track quality 100.0 %
Test CRC 6277168E
Copy CRC 6277168E
Accurately ripped (confidence 2) [64CC4F8C] (AR v2)
Copy OK
All tracks accurately ripped
No errors occurred
End of status report
---- CUETools DB Plugin V2.1.3
[CTDB TOCID: yb6v1zKuMHOyhvqYs2A4iBkcyiY-] found, Submit result: yb6v1zKuMHOyhvqYs2A4iBkcyiY- has been confirmed
[60662559] (2/2) Accurately ripped
==== Log checksum 1B1E375C97C3B80338884C4D9562981AB756897CCA9F83AD491A507AE4C58829 ====

CUE-file

REM GENRE Classical
REM DATE 2014
REM DISCID 290F8225
REM COMMENT "ExactAudioCopy v1.0b3"
PERFORMER "Francis Poulenc (Sophie Karthдuser)"
TITLE "Les anges musiciens..."
FILE "01 - Deux poиmes de Louis Aragon - I. C..wav" WAVE
TRACK 01 AUDIO
TITLE "Deux poиmes de Louis Aragon : I. C."
PERFORMER "Francis Poulenc (Sophie Karthдuser)"
INDEX 01 00:00:00
FILE "02 - Deux poиmes de Louis Aragon - II. Fкtes galantes.wav" WAVE
TRACK 02 AUDIO
TITLE "Deux poиmes de Louis Aragon : II. Fкtes galantes"
PERFORMER "Francis Poulenc (Sophie Karthдuser)"
INDEX 01 00:00:00
FILE "03 - Bleuet FP 102 (Guillaume Apollinaire).wav" WAVE
TRACK 03 AUDIO
TITLE "Bleuet FP 102 (Guillaume Apollinaire)"
PERFORMER "Francis Poulenc (Sophie Karthдuser)"
INDEX 01 00:00:00
FILE "04 - Voyage а Paris FP 107 no. 4 (Guillaume Apollinaire) - no. 4 de ''Banalitйs''.wav" WAVE
TRACK 04 AUDIO
TITLE "Voyage а Paris FP 107 no. 4 (Guillaume Apollinaire) : no. 4 de 'Banalitйs'"
PERFORMER "Francis Poulenc (Sophie Karthдuser)"
INDEX 01 00:00:00
FILE "05 - Montparnasse FP 127 no. 1 (Guillaume Apollinaire) - no. 1 de ''Deux mйlodies de Guillaume Apollinaire''.wav" WAVE
TRACK 05 AUDIO
TITLE "Montparnasse FP 127 no. 1 (Guillaume Apollinaire) : no. 1 de 'Deux mйlodies d..."
PERFORMER "Francis Poulenc (Sophie Karthдuser)"
INDEX 01 00:00:00
FILE "06 - Hфtel FP 107 no. 2 (Guillaume Apollinaire) - no. 2 de ''Banalitйs''.wav" WAVE
TRACK 06 AUDIO
TITLE "Hфtel FP 107 no. 2 (Guillaume Apollinaire) : no. 2 de 'Banalitйs'"
PERFORMER "Francis Poulenc (Sophie Karthдuser)"
INDEX 01 00:00:00
FILE "07 - Trois poиmes de Louise Lalanne FP 57 - I. Le prйsent (Marie Laurencin).wav" WAVE
TRACK 07 AUDIO
TITLE "Trois poиmes de Louise Lalanne FP 57 : I. Le prйsent (Marie Laurencin)"
PERFORMER "Francis Poulenc (Sophie Karthдuser)"
INDEX 01 00:00:00
FILE "08 - Trois poиmes de Louise Lalanne FP 57 - II. Chanson (Guillaume Apollinaire).wav" WAVE
TRACK 08 AUDIO
TITLE "Trois poиmes de Louise Lalanne FP 57 : II. Chanson (Guillaume Apollinaire)"
PERFORMER "Francis Poulenc (Sophie Karthдuser)"
INDEX 01 00:00:00
FILE "09 - Trois poиmes de Louise Lalanne FP 57 - III. Hier (Marie Laurencin).wav" WAVE
TRACK 09 AUDIO
TITLE "Trois poиmes de Louise Lalanne FP 57 : III. Hier (Marie Laurencin)"
PERFORMER "Francis Poulenc (Sophie Karthдuser)"
INDEX 01 00:00:00
FILE "10 - Ce doux petit visage FP 99 (Paul Eluard).wav" WAVE
TRACK 10 AUDIO
TITLE "Ce doux petit visage FP 99 (Paul Eluard)"
PERFORMER "Francis Poulenc (Sophie Karthдuser)"
INDEX 01 00:00:00
FILE "11 - Main dominйe par le coeur FP 135 (Paul Eluard).wav" WAVE
TRACK 11 AUDIO
TITLE "Main dominйe par le coeur FP 135 (Paul Eluard)"
PERFORMER "Francis Poulenc (Sophie Karthдuser)"
INDEX 01 00:00:00
FILE "12 - Tel jour telle nuit FP 86 (Paul Eluard) - I. Bonne journйe.wav" WAVE
TRACK 12 AUDIO
TITLE "Tel jour telle nuit FP 86 (Paul Eluard) : I. Bonne journйe"
PERFORMER "Francis Poulenc (Sophie Karthдuser)"
INDEX 01 00:00:00
FILE "13 - Tel jour telle nuit FP 86 (Paul Eluard) - II. Une ruine coquille vide.wav" WAVE
TRACK 13 AUDIO
TITLE "Tel jour telle nuit FP 86 (Paul Eluard) : II. Une ruine coquille vide"
PERFORMER "Francis Poulenc (Sophie Karthдuser)"
INDEX 01 00:00:00
FILE "14 - Tel jour telle nuit FP 86 (Paul Eluard) - III. Le front comme un drapeau perdu.wav" WAVE
TRACK 14 AUDIO
TITLE "Tel jour telle nuit FP 86 (Paul Eluard) : III. Le front comme un drapeau perdu"
PERFORMER "Francis Poulenc (Sophie Karthдuser)"
INDEX 01 00:00:00
FILE "15 - Tel jour telle nuit FP 86 (Paul Eluard) - IV. Une roulotte couverte en tuiles.wav" WAVE
TRACK 15 AUDIO
TITLE "Tel jour telle nuit FP 86 (Paul Eluard) : IV. Une roulotte couverte en tuiles"
PERFORMER "Francis Poulenc (Sophie Karthдuser)"
INDEX 01 00:00:00
FILE "16 - Tel jour telle nuit FP 86 (Paul Eluard) - V. A toutes brides.wav" WAVE
TRACK 16 AUDIO
TITLE "Tel jour telle nuit FP 86 (Paul Eluard) : V. A toutes brides"
PERFORMER "Francis Poulenc (Sophie Karthдuser)"
INDEX 01 00:00:00
FILE "17 - Tel jour telle nuit FP 86 (Paul Eluard) - VI. Une herbe pauvre.wav" WAVE
TRACK 17 AUDIO
TITLE "Tel jour telle nuit FP 86 (Paul Eluard) : VI. Une herbe pauvre"
PERFORMER "Francis Poulenc (Sophie Karthдuser)"
INDEX 01 00:00:00
FILE "18 - Tel jour telle nuit FP 86 (Paul Eluard) - VII. Je n'ai envie que de t'aimer.wav" WAVE
TRACK 18 AUDIO
TITLE "Tel jour telle nuit FP 86 (Paul Eluard) : VII. Je n'ai envie que de t'aimer"
PERFORMER "Francis Poulenc (Sophie Karthдuser)"
INDEX 01 00:00:00
FILE "19 - Tel jour telle nuit FP 86 (Paul Eluard) - VIII. Figure de force brыlante et farouche.wav" WAVE
TRACK 19 AUDIO
TITLE "Tel jour telle nuit FP 86 (Paul Eluard) : VIII. Figure de force brыlante et f..."
PERFORMER "Francis Poulenc (Sophie Karthдuser)"
INDEX 01 00:00:00
FILE "20 - Tel jour telle nuit FP 86 (Paul Eluard) - IX. Nous avons fait la nuit.wav" WAVE
TRACK 20 AUDIO
TITLE "Tel jour telle nuit FP 86 (Paul Eluard) : IX. Nous avons fait la nuit"
PERFORMER "Francis Poulenc (Sophie Karthдuser)"
INDEX 01 00:00:00
FILE "21 - Vocalise-Etude FP 44.wav" WAVE
TRACK 21 AUDIO
TITLE "Vocalise-Etude FP 44"
PERFORMER "Francis Poulenc (Sophie Karthдuser)"
INDEX 01 00:00:00
FILE "22 - Fianзailles pour rire FP 101 (Louise de Vilmorin) - I. La Dame d'Andrй.wav" WAVE
TRACK 22 AUDIO
TITLE "Fianзailles pour rire FP 101 (Louise de Vilmorin) : I. La Dame d'Andrй"
PERFORMER "Francis Poulenc (Sophie Karthдuser)"
INDEX 01 00:00:00
FILE "23 - Fianзailles pour rire FP 101 (Louise de Vilmorin) - II. Dans l'herbe.wav" WAVE
TRACK 23 AUDIO
TITLE "Fianзailles pour rire FP 101 (Louise de Vilmorin) : II. Dans l'herbe"
PERFORMER "Francis Poulenc (Sophie Karthдuser)"
INDEX 01 00:00:00
FILE "24 - Fianзailles pour rire FP 101 (Louise de Vilmorin) - III. Il vole.wav" WAVE
TRACK 24 AUDIO
TITLE "Fianзailles pour rire FP 101 (Louise de Vilmorin) : III. Il vole"
PERFORMER "Francis Poulenc (Sophie Karthдuser)"
INDEX 01 00:00:00
FILE "25 - Fianзailles pour rire FP 101 (Louise de Vilmorin) - IV. Mon cadavre est doux comme un gant.wav" WAVE
TRACK 25 AUDIO
TITLE "Fianзailles pour rire FP 101 (Louise de Vilmorin) : IV. Mon cadavre est doux ..."
PERFORMER "Francis Poulenc (Sophie Karthдuser)"
INDEX 01 00:00:00
FILE "26 - Fianзailles pour rire FP 101 (Louise de Vilmorin) - V. Violon.wav" WAVE
TRACK 26 AUDIO
TITLE "Fianзailles pour rire FP 101 (Louise de Vilmorin) : V. Violon"
PERFORMER "Francis Poulenc (Sophie Karthдuser)"
INDEX 01 00:00:00
FILE "27 - Fianзailles pour rire FP 101 (Louise de Vilmorin) - VI. Fleurs.wav" WAVE
TRACK 27 AUDIO
TITLE "Fianзailles pour rire FP 101 (Louise de Vilmorin) : VI. Fleurs"
PERFORMER "Francis Poulenc (Sophie Karthдuser)"
INDEX 01 00:00:00
FILE "28 - Fancy FP 174 (William Shakespeare).wav" WAVE
TRACK 28 AUDIO
TITLE "Fancy FP 174 (William Shakespeare)"
PERFORMER "Francis Poulenc (Sophie Karthдuser)"
INDEX 01 00:00:00
FILE "29 - La courte paille FP 178 (Maurice Carкme) - I. Le sommeil.wav" WAVE
TRACK 29 AUDIO
TITLE "La courte paille FP 178 (Maurice Carкme) : I. Le sommeil"
PERFORMER "Francis Poulenc (Sophie Karthдuser)"
INDEX 01 00:00:00
FILE "30 - La courte paille FP 178 (Maurice Carкme) - II. Quelle aventure !.wav" WAVE
TRACK 30 AUDIO
TITLE "La courte paille FP 178 (Maurice Carкme) : II. Quelle aventure !"
PERFORMER "Francis Poulenc (Sophie Karthдuser)"
INDEX 01 00:00:00
FILE "31 - La courte paille FP 178 (Maurice Carкme) - III. La reine de coeur.wav" WAVE
TRACK 31 AUDIO
TITLE "La courte paille FP 178 (Maurice Carкme) : III. La reine de coeur"
PERFORMER "Francis Poulenc (Sophie Karthдuser)"
INDEX 01 00:00:00
FILE "32 - La courte paille FP 178 (Maurice Carкme) - IV. Ba, Be, Bi, Bo, Bu.wav" WAVE
TRACK 32 AUDIO
TITLE "La courte paille FP 178 (Maurice Carкme) : IV. Ba, Be, Bi, Bo, Bu"
PERFORMER "Francis Poulenc (Sophie Karthдuser)"
INDEX 01 00:00:00
FILE "33 - La courte paille FP 178 (Maurice Carкme) - V. Les anges musiciens.wav" WAVE
TRACK 33 AUDIO
TITLE "La courte paille FP 178 (Maurice Carкme) : V. Les anges musiciens"
PERFORMER "Francis Poulenc (Sophie Karthдuser)"
INDEX 01 00:00:00
FILE "34 - La courte paille FP 178 (Maurice Carкme) - VI. Le carafon.wav" WAVE
TRACK 34 AUDIO
TITLE "La courte paille FP 178 (Maurice Carкme) : VI. Le carafon"
PERFORMER "Francis Poulenc (Sophie Karthдuser)"
INDEX 01 00:00:00
FILE "35 - La courte paille FP 178 (Maurice Carкme) - VII. Lune d'Avril.wav" WAVE
TRACK 35 AUDIO
TITLE "La courte paille FP 178 (Maurice Carкme) : VII. Lune d'Avril"
PERFORMER "Francis Poulenc (Sophie Karthдuser)"
INDEX 01 00:00:00
FILE "36 - Deux chansons pour Yvonne Printemps - A sa guitare FP 79 (Pierre de Ronsard).wav" WAVE
TRACK 36 AUDIO
TITLE "Deux chansons pour Yvonne Printemps : A sa guitare FP 79 (Pierre de Ronsard)"
PERFORMER "Francis Poulenc (Sophie Karthдuser)"
INDEX 01 00:00:00
FILE "37 - Deux chansons pour Yvonne Printemps - Les chansons de l'amour FP 106 (Jean Anouilh).wav" WAVE
TRACK 37 AUDIO
TITLE "Deux chansons pour Yvonne Printemps : Les chansons de l'amour FP 106 (Jean An..."
PERFORMER "Francis Poulenc (Sophie Karthдuser)"
INDEX 01 00:00:00

Треклист

Deux poèmes de Louis Aragon, FP 122:
01. 1. C. (2:46)
02. 2. Fêtes galantes (1:02)
03. Bleuet, FP 102 (2:53)
04. Banalités, FP 107: 4. Voyage à Paris (0:56)
05. Deux mélodies de Guillaume Apollinaire, FP 127: 1. Montparnasse (3:03)
06. 'Banalités" FP 107, No. 2: Hôtel (1:59)
Trois poèmes de Louise Lalanne, FP 57:
07. 1. Le présent (0:51)
08. 2. Chanson (0:40)
09. 3. Hier (1:48)
10. Ce doux petit visage, FP 99 (1:42)
11. Main dominée par le cœur, FP 135 (1:20)
Tel jour telle nuit, FP 86:
12. 1. Bonne journée (2:20)
13. 2. Une ruine coquille vide (1:55)
14. 3. Le front comme un drapeau perdu (1:02)
15. 4. Une roulotte couverte en tuiles (0:59)
16. 5. A toutes brides (0:37)
17. 6. Une herbe pauvre (1:22)
18. 7. Je n'ai envie que de t'aimer (0:53)
19. 8. Figure de force brûlante et farouche (1:21)
20. 9. Nous avons fait la nuit (2:57)
21. Vocalise-Étude, FP 44 (3:12)
Fiançailles pour rire, FP 101:
22. 1. La Dame d'André (1:33)
23. 2. Dans l'herbe (2:14)
24. 3. Il vole (1:45)
25. 4. Mon cadavre est doux comme un gant (2:38)
26. 5. Violon (2:02)
27. 6. Fleurs (2:28)
28. Fancy, FP 174 (1:37)
La courte paille, FP 178:
29. 1. Le sommeil (2:02)
30. 2. Quelle aventure ! (1:02)
31. 3. La reine de cœur (1:34)
32. 4. Ba, Be, Bi, Bo, Bu (0:31)
33. 5. Les anges musiciens (1:28)
34. 6. Le carafon (1:06)
35. 7. Lune d'Avril (2:26)
Deux chansons pour Yvonne Printemps:
36. À sa guitare, FP 79 (2:38)
37. Les chemins de l'amour, FP 106 (3:31)



Показать сообщения:    

Текущее время: 10-Дек 09:55

Часовой пояс: UTC + 3


Вы не можете начинать темы
Вы не можете отвечать на сообщения
Вы не можете редактировать свои сообщения
Вы не можете удалять свои сообщения
Вы не можете голосовать в опросах
Вы не можете прикреплять файлы к сообщениям
Вы не можете скачивать файлы