Моцарт - Свадьба Фигаро / Mozart - Le nozze di Figaro (Fischer-Dieskau, Guden, Sciutti, Evans) Лорин Маазель / Lorin Maazel (Gustav Rudolf Sellner) [1963, Opera, DVDRip-AVC] Sub [Русские][Eng.]


 

[Цитировать]

-Оперный фестиваль в Зальцбурге (сезон 1963 года) представляет
ВОЛЬФГАНГ Амадей МОЦАРТ
27 января (January, 27) 1756 — 5 декабря (December, 5) 1791
»«СВАДЬБА ФИГАРО»«
Либретто Лоренцо Да Понте по мотивам одноимённой комедии Бомарше
-- СюзаннаГРАЦИЕЛЛА ШУТТИ Graziella Sciutti
ФигароГЕРАЙНТ ЭВАНС Geraint Evans
ГрафиняХИЛЬДА ГЮДЕН Hilde Güden
ГрафДИТРИХ ФИШЕР-ДИСКАУ Dietrich Fischer-Dieskau
КерубиноЭВЕЛИН ЛИР Evelyn Lear
МарцелинаПАТРИШИЯ ДЖОНСОН Patricia Johnson
БартолоПЕТЕР ЛАГГЕР Peter Lagger
БазилиоЙОН ван КЕСТЕРЕН John van Kesteren
БарбаринаБАРБАРА ФОГЕЛЬ Barbara Vogel
АнтониоЗИГФРИД Рудольф ФРЕЗЕ Siegfried Rudolf Frese
ХОР и ОРКЕСТР Венской государственной Оперы
ДИРИЖЁР Лорин МААЗЕЛЬ Lorin Maazel
РЕЖИССЁР Густав Рудольф СЕЛЛНЕР Gustav Rudolf Sellner
•••
Субтитры/Subtitles: РУССКИЕ, English в составе контейнера
Продолжительность: 177 min.
Качество видео: DVDRip-AVC
Формат/Контейнер: MKV
Видео поток: 704x476@536, 1058 kbps, 29,970 fps.
Аудио поток: Italian, AС-3 192 kbps, 48,0 KHz, 2 ch original

Тех. данные

MediaInfo

-

x264.log


avs [info]: 704x476p 8:9 @ 30000/1001 fps (cfr)
x264 [info]: using SAR=8/9
x264 [info]: using cpu capabilities: MMX2 SSE2Fast SSEMisalign LZCNT
x264 [info]: profile High, level 4.1
x264 [info]: frame I:1511 Avg QP:15.51 size: 33980
x264 [info]: frame P:64162 Avg QP:18.06 size: 12439
x264 [info]: frame B:254353 Avg QP:21.21 size: 2214
x264 [info]: consecutive B-frames: 0.6% 0.2% 6.0% 16.5% 26.0% 50.6%
x264 [info]: mb I I16..4: 1.7% 91.6% 6.7%
x264 [info]: mb P I16..4: 0.1% 6.0% 0.3% P16..4: 35.0% 41.1% 13.4% 1.6% 0.1% skip: 2.3%
x264 [info]: mb B I16..4: 0.0% 0.3% 0.0% B16..8: 30.9% 14.5% 1.4% direct: 3.2% skip:49.8% L0:41.4% L1:44.6% BI:14.0%
x264 [info]: 8x8 transform intra:93.0% inter:59.3%
x264 [info]: coded y,uvDC,uvAC intra: 96.2% 46.4% 18.4% inter: 17.3% 11.6% 0.1%
x264 [info]: i16 v,h,dc,p: 37% 14% 3% 47%
x264 [info]: i8 v,h,dc,ddl,ddr,vr,hd,vl,hu: 16% 12% 6% 8% 10% 12% 11% 13% 13%
x264 [info]: i4 v,h,dc,ddl,ddr,vr,hd,vl,hu: 13% 9% 2% 8% 15% 16% 14% 11% 12%
x264 [info]: i8c dc,h,v,p: 37% 38% 18% 7%
x264 [info]: Weighted P-Frames: Y:2.5% UV:0.1%
x264 [info]: ref P L0: 40.5% 11.1% 28.1% 8.1% 11.2% 1.0% 0.0%
x264 [info]: ref B L0: 82.1% 13.0% 3.3% 1.6%
x264 [info]: ref B L1: 97.1% 2.9%
x264 [info]: kb/s:1058.22
-
General
Unique ID : 254168532608132170301742846840856691502 (0xBF37142B6422F519882F8C50C29CC32E)
Complete name : Le Nozze di Figaro (Salzburg) 1963.mkv
Format : Matroska
Format version : Version 4 / Version 2
File size : 1.56 GiB
Duration : 2h 57mn
Overall bit rate : 1 252 Kbps
Encoded date : UTC 2015-04-10 20:04:53
Writing application : mkvmerge v7.6.0 ('Garden of Dreams') 32bit built on Feb 8 2015 12:51:39
Writing library : libebml v1.3.1 + libmatroska v1.4.2
_STATISTICS_WRITING_APP : mkvmerge v7.6.0 ('Garden of Dreams') 32bit built on Feb 8 2015 12:51:39
_STATISTICS_WRITING_DATE_UTC : 2015-04-10 20:04:53
_STATISTICS_TAGS : BPS DURATION NUMBER_OF_FRAMES NUMBER_OF_BYTES
DURATION : 02:46:44.917000000
NUMBER_OF_FRAMES : 1262
NUMBER_OF_BYTES : 54093
Video
ID : 1
Format : AVC
Format/Info : Advanced Video Codec
Format profile : High@L4.1
Format settings, CABAC : Yes
Format settings, ReFrames : 5 frames
Codec ID : V_MPEG4/ISO/AVC
Duration : 2h 57mn
Bit rate : 1 035 Kbps
Width : 704 pixels
Height : 476 pixels
Display aspect ratio : 4:3
Original display aspect ratio : 4:3
Frame rate mode : Constant
Frame rate : 29.970 fps
Color space : YUV
Chroma subsampling : 4:2:0
Bit depth : 8 bits
Scan type : Progressive
Bits/(Pixel*Frame) : 0.103
Stream size : 1.29 GiB (83%)
Writing library : x264 core 130 r2273 b3065e6
Encoding settings : cabac=1 / ref=5 / deblock=1:-3:-3 / analyse=0x3:0x133 / me=umh / subme=11 / psy=1 / psy_rd=1.05:0.10 / mixed_ref=1 / me_range=32 / chroma_me=1 / trellis=2 / 8x8dct=1 / cqm=0 / deadzone=21,11 / fast_pskip=1 / chroma_qp_offset=-3 / threads=4 / lookahead_threads=1 / sliced_threads=0 / nr=0 / decimate=1 / interlaced=0 / bluray_compat=0 / constrained_intra=0 / bframes=5 / b_pyramid=2 / b_adapt=2 / b_bias=0 / direct=1 / weightb=1 / open_gop=0 / weightp=2 / keyint=250 / keyint_min=25 / scenecut=40 / intra_refresh=0 / rc_lookahead=60 / rc=crf / mbtree=1 / crf=18.0 / qcomp=0.65 / qpmin=0 / qpmax=69 / qpstep=4 / ip_ratio=1.40 / aq=1:0.90
Language : English
Default : Yes
Forced : No
_STATISTICS_WRITING_APP : mkvmerge v7.6.0 ('Garden of Dreams') 32bit built on Feb 8 2015 12:51:39
_STATISTICS_WRITING_DATE_UTC : 2015-04-10 20:04:53
_STATISTICS_TAGS : BPS DURATION NUMBER_OF_FRAMES NUMBER_OF_BYTES
DURATION : 02:57:58.201000000
NUMBER_OF_FRAMES : 320026
NUMBER_OF_BYTES : 1412490724
Audio
ID : 2
Format : AC-3
Format/Info : Audio Coding 3
Mode extension : CM (complete main)
Format settings, Endianness : Big
Codec ID : A_AC3
Duration : 2h 57mn
Bit rate mode : Constant
Bit rate : 192 Kbps
Channel(s) : 2 channels
Channel positions : Front: L R
Sampling rate : 48.0 KHz
Bit depth : 16 bits
Compression mode : Lossy
Stream size : 244 MiB (15%)
Language : Italian
Default : Yes
Forced : No
Text #1
ID : 3
Format : UTF-8
Codec ID : S_TEXT/UTF8
Codec ID/Info : UTF-8 Plain Text
Language : Russian
Default : Yes
Forced : No
Text #2
ID : 4
Format : UTF-8
Codec ID : S_TEXT/UTF8
Codec ID/Info : UTF-8 Plain Text
Language : English
Default : No
Forced : No
К юбилею luisa11



Показать сообщения:    

Текущее время: 04-Дек 21:26

Часовой пояс: UTC + 3


Вы не можете начинать темы
Вы не можете отвечать на сообщения
Вы не можете редактировать свои сообщения
Вы не можете удалять свои сообщения
Вы не можете голосовать в опросах
Вы не можете прикреплять файлы к сообщениям
Вы не можете скачивать файлы