(Orchestral, chamber) Mystic - Les visions musicales d'Olivier Messiaen: extraits de la Turangalila Symphonie • du Quatuor pour la fin du Temps • du Concert a quatre etc. (Barenboim | Ростропович | Chung) - 1996, FLAC (image+.cue) lossless


 

[Цитировать]

Mystic: Le visions musicales d'Olivier Messiaen-

Жанр: Orchestral, chamber
Страна-производитель диска: Germany
Год издания диска: 1996
Издатель (лейбл): DGG
Дата записи: 1979-95
Аудиокодек: FLAC
Тип рипа: image+.cue
Битрейт аудио: lossless
Продолжительность: 75'06''
Источник: собственный рип
Наличие сканов в содержимом раздачи: да
Треклист:
[01] Vocalise (Extrait du concert a quatre)

Catherine Cantin, flute | Heinz Holliger, oboe | Yvonne Loroid, piano | Mstislav Rostropovich, cello
[02] Joie du Sang des Étoiles (extrait de la Turangalila Symphonie)
[03] Jardin du sommeil d'amour (extrait de la Turangalila Symphonie)
Yvonne Loroid, piano | Jeanne Loroid, ondes martenot
[04] Louange à l'Éternité de Jésus (extrait du Quatuor pour la fin du Temps)
Albert Tétard, cello | Daniel Barenboim, piano
[05] Demeurer dans l'Amour (extrait de Éclairs sur l'au-delà...)
[06] L'Ascension: I. Majesté du Christ demandant sa gloire à son Père
[07] II. Alleluias sereins d’une âme qui désire le ciel
[08] III. Alleluia sur la trompette, alleluia sur la cymbale
[09] IV. Prière du Christ montant vers son Père
Исполнители:
Orchstre de l'Opéra Bastille
Myung-whun Chung
-

Лог создания рипа

Exact Audio Copy V1.0 beta 4 from 7. December 2014
EAC extraction logfile from 22. February 2015, 21:04
Orchestre de l'Opera Bastille - M.-W.Chung / Messiaen - Mystic
Used drive : HL-DT-STDVD+-RW GU90N Adapter: 1 ID: 0
Read mode : Secure
Utilize accurate stream : Yes
Defeat audio cache : Yes
Make use of C2 pointers : No
Read offset correction : 102
Overread into Lead-In and Lead-Out : No
Fill up missing offset samples with silence : Yes
Delete leading and trailing silent blocks : No
Null samples used in CRC calculations : Yes
Used interface : Native Win32 interface for Win NT & 2000
Used output format : User Defined Encoder
Selected bitrate : 1024 kBit/s
Quality : High
Add ID3 tag : No
Command line compressor : C:\Program Files (x86)\FLAC\flac.exe
Additional command line options : -T "COMMENT=rip by el coronel" -8 -V %source%
TOC of the extracted CD
Track | Start | Length | Start sector | End sector
---------------------------------------------------------
1 | 0:00.00 | 4:25.00 | 0 | 19874
2 | 4:25.00 | 6:43.00 | 19875 | 50099
3 | 11:08.00 | 12:36.00 | 50100 | 106799
4 | 23:44.00 | 8:44.00 | 106800 | 146099
5 | 32:28.00 | 10:20.00 | 146100 | 192599
6 | 42:48.00 | 8:17.00 | 192600 | 229874
7 | 51:05.00 | 6:06.00 | 229875 | 257324
8 | 57:11.00 | 5:33.00 | 257325 | 282299
9 | 62:44.00 | 12:22.00 | 282300 | 337949
Range status and errors
Selected range
Filename F:\Music\Messiaen - Mystic (Chung)\CD.wav
Peak level 98.7 %
Extraction speed 5.0 X
Range quality 100.0 %
Test CRC BB9F00B2
Copy CRC BB9F00B2
Copy OK
No errors occurred
AccurateRip summary
Track 1 accurately ripped (confidence 2) [F175E23C] (AR v2)
Track 2 accurately ripped (confidence 2) [FBA7B4EB] (AR v2)
Track 3 accurately ripped (confidence 2) [E5FB11CD] (AR v2)
Track 4 accurately ripped (confidence 2) [EBA24EDB] (AR v2)
Track 5 accurately ripped (confidence 2) [3613177D] (AR v2)
Track 6 accurately ripped (confidence 2) [2587A946] (AR v2)
Track 7 accurately ripped (confidence 2) [0015EBC2] (AR v2)
Track 8 accurately ripped (confidence 2) [1D45BED6] (AR v2)
Track 9 accurately ripped (confidence 2) [E1CE4ECA] (AR v2)
All tracks accurately ripped
End of status report
---- CUETools DB Plugin V2.1.4
[CTDB TOCID: JGGaZavp19Ss3t7ErxuZmQoDsAU-] found
Submit result: JGGaZavp19Ss3t7ErxuZmQoDsAU- has been confirmed
Track | CTDB Status
1 | (5/5) Accurately ripped
2 | (5/5) Accurately ripped
3 | (5/5) Accurately ripped
4 | (5/5) Accurately ripped
5 | (5/5) Accurately ripped
6 | (5/5) Accurately ripped
7 | (5/5) Accurately ripped
8 | (5/5) Accurately ripped
9 | (5/5) Accurately ripped
==== Log checksum 02BD6AEC01A71E7C30B73CBA1D5A616D1026EE623DC249447C6151F65F2F1B7C ====

Содержание индексной карты (.CUE)

REM GENRE Classical
REM DATE 1996
REM DISCID 7B119A09
REM COMMENT "ExactAudioCopy v1.0b4"
CATALOG 0028944937725
PERFORMER "Orchestre de l'Opera Bastille - M.-W.Chung"
TITLE "Messiaen - Mystic"
FILE "CD.flac" WAVE
TRACK 01 AUDIO
TITLE "Vocalise (Extrait du concert a quatre)"
PERFORMER "Orchestre de l'Opera Bastille - M.-W.Chung"
ISRC DEF059402842
INDEX 01 00:00:00
TRACK 02 AUDIO
TITLE "Joie du sang des etoiles (extrait de la Turangalila Symphonie)"
PERFORMER "Orchestre de l'Opera Bastille - M.-W.Chung"
ISRC DEF059030505
INDEX 00 04:19:00
INDEX 01 04:25:00
TRACK 03 AUDIO
TITLE "Jardin du sommeil d'amour (extrait de la Turangalila Symphonie)"
PERFORMER "Orchestre de l'Opera Bastille - M.-W.Chung"
INDEX 01 11:08:00
TRACK 04 AUDIO
TITLE "Louange a l'eternite de Jesus (extrait du Quatuor pour la fin du Temps)"
PERFORMER "Orchestre de l'Opera Bastille - M.-W.Chung"
ISRC DEF057900651
INDEX 00 23:38:00
INDEX 01 23:44:00
TRACK 05 AUDIO
TITLE "Demeurer dans l'Amour (extrait de Eclairs sur l'Au-Dela...)"
PERFORMER "Orchestre de l'Opera Bastille - M.-W.Chung"
ISRC DEF059330705
INDEX 00 32:21:00
INDEX 01 32:28:00
TRACK 06 AUDIO
TITLE "L'Ascension: I. Majeste du Christ demandant sa gloire a son Pere"
PERFORMER "Orchestre de l'Opera Bastille - M.-W.Chung"
ISRC DEF059104170
INDEX 00 42:37:00
INDEX 01 42:48:00
TRACK 07 AUDIO
TITLE "L'Ascension: II. Alleluias sereins d'une ame qui desire le ciel"
PERFORMER "Orchestre de l'Opera Bastille - M.-W.Chung"
INDEX 01 51:05:00
TRACK 08 AUDIO
TITLE "L'Ascension: III .Alleluia sur la trompette, Alleluia sur la cymbale"
PERFORMER "Orchestre de l'Opera Bastille - M.-W.Chung"
INDEX 01 57:11:00
TRACK 09 AUDIO
TITLE "L'Ascension: IV. Priere du Christ montant vesr son Pere"
PERFORMER "Orchestre de l'Opera Bastille - M.-W.Chung"
INDEX 01 62:44:00
-



Показать сообщения:    

Текущее время: 04-Дек 04:59

Часовой пояс: UTC + 3


Вы не можете начинать темы
Вы не можете отвечать на сообщения
Вы не можете редактировать свои сообщения
Вы не можете удалять свои сообщения
Вы не можете голосовать в опросах
Вы не можете прикреплять файлы к сообщениям
Вы не можете скачивать файлы