(Baroque, Chamber) Tommaso Giordani - Quartetti e quintette (Performed by L'Astree ensemble) World Premiere Recording - 1996 / 1999, FLAC (tracks+.cue), lossless


 

[Цитировать]

Tommaso Giordani - Quartetti e quintette (Performed by L'Astree ensemble)
Жанр: Baroque, Chamber
Страна-производитель диска: Франция
Год издания диска: 1999
Издатель (лейбл): Opus 111
Дата записи: 1996
Аудиокодек: FLAC
Тип рипа: tracks+.cue
Битрейт аудио: lossless
Продолжительность: 67:21
Источник: релизер (duckjammy)
Наличие сканов в содержимом раздачи: да
Исполнители:
L'Astrée, chamber ensemble:
Francesco D'Orazio, violin,
Franco Andrini, violin,
Alessandro Tampieri, viola,
Ubaldo Rossa, flute,
Giorgio Tabacco, harpsichord,
Stefano Veggetti, cello.
Recorded at Istituto di Musica Antica Stanislao Cordero di Pamparato, Mondovi, Italy, 20-24 October, 1996.

Лог создания рипа

Exact Audio Copy V1.0 beta 3 from 29. August 2011
EAC extraction logfile from 18. December 2014, 9:33
L'Astrée / Giordani - Quartetti e quintette
Used drive : PLDS BD-RE DH-8B2SH Adapter: 0 ID: 0
Read mode : Secure
Utilize accurate stream : Yes
Defeat audio cache : Yes
Make use of C2 pointers : No
Read offset correction : 6
Overread into Lead-In and Lead-Out : No
Fill up missing offset samples with silence : Yes
Delete leading and trailing silent blocks : No
Null samples used in CRC calculations : Yes
Used interface : Native Win32 interface for Win NT & 2000
Gap handling : Appended to previous track
Used output format : User Defined Encoder
Selected bitrate : 1024 kBit/s
Quality : High
Add ID3 tag : No
Command line compressor : C:\Program Files (x86)\FLAC\flac.exe
Additional command line options : -8 -V -T "ARTIST=%artist%" -T "TITLE=%title%" -T "ALBUM=%albumtitle%" -T "DATE=%year%" -T "TRACKNUMBER=%tracknr%" -T "GENRE=%genre%" -T "PERFORMER=%albuminterpret%" -T "COMPOSER=%composer%" %haslyrics%--tag-from-file=LYRICS="%lyricsfile%"%haslyrics% -T "ALBUMARTIST=%albumartist%" -T "DISCNUMBER=%cdnumber%" -T "TOTALDISCS=%totalcds%" -T "TOTALTRACKS=%numduckjammytracks%" -T "COMMENT=%comment%" %source% -o %dest%
TOC of the extracted CD
Track | Start | Length | Start sector | End sector
---------------------------------------------------------
1 | 0:00.00 | 6:40.52 | 0 | 30051
2 | 6:40.52 | 3:30.10 | 30052 | 45811
3 | 10:10.62 | 2:59.53 | 45812 | 59289
4 | 13:10.40 | 7:55.07 | 59290 | 94921
5 | 21:05.47 | 4:09.25 | 94922 | 113621
6 | 25:14.72 | 3:45.60 | 113622 | 130556
7 | 29:00.57 | 6:29.45 | 130557 | 159776
8 | 35:30.27 | 3:38.20 | 159777 | 176146
9 | 39:08.47 | 2:42.00 | 176147 | 188296
10 | 41:50.47 | 6:41.68 | 188297 | 218439
11 | 48:32.40 | 2:29.72 | 218440 | 229686
12 | 51:02.37 | 2:03.53 | 229687 | 238964
13 | 53:06.15 | 5:18.02 | 238965 | 262816
14 | 58:24.17 | 5:10.60 | 262817 | 286126
15 | 63:35.02 | 3:46.55 | 286127 | 303131
Track 1
Filename C:\EAC\01 - Quintet in A major Op. 1 No. 3 - 1. Allegro moderato.wav
Pre-gap length 0:00:02.00
Peak level 45.7 %
Extraction speed 4.1 X
Track quality 99.9 %
Test CRC E77C40D4
Copy CRC E77C40D4
Accurately ripped (confidence 1) [1EE99449] (AR v2)
Copy OK
Track 2
Filename C:\EAC\02 - Quintet in A major Op. 1 No. 3 - 2. Larghetto.wav
Peak level 39.0 %
Extraction speed 3.9 X
Track quality 99.9 %
Test CRC FF175D0C
Copy CRC FF175D0C
Accurately ripped (confidence 1) [2BBE381D] (AR v2)
Copy OK
Track 3
Filename C:\EAC\03 - Quintet in A major Op. 1 No. 3 - 3. Allegro, Rondo.wav
Peak level 40.6 %
Extraction speed 5.0 X
Track quality 100.0 %
Test CRC ADAD8D16
Copy CRC ADAD8D16
Accurately ripped (confidence 1) [33346612] (AR v2)
Copy OK
Track 4
Filename C:\EAC\04 - Quartet in D major Op. 2 No. 5 - 1. Allegro spiritoso.wav
Pre-gap length 0:00:02.33
Peak level 44.9 %
Extraction speed 5.5 X
Track quality 99.9 %
Test CRC D06585B6
Copy CRC D06585B6
Accurately ripped (confidence 1) [8018C085] (AR v2)
Copy OK
Track 5
Filename C:\EAC\05 - Quartet in D major Op. 2 No. 5 - 2. Largo.wav
Peak level 39.2 %
Extraction speed 5.1 X
Track quality 99.9 %
Test CRC 3019DD9F
Copy CRC 3019DD9F
Accurately ripped (confidence 1) [9447CF65] (AR v2)
Copy OK
Track 6
Filename C:\EAC\06 - Quartet in D major Op. 2 No. 5 - 3. Tempo di minuetto.wav
Peak level 39.5 %
Extraction speed 6.5 X
Track quality 100.0 %
Test CRC 4ECCC1B5
Copy CRC 4ECCC1B5
Accurately ripped (confidence 1) [657D02A6] (AR v2)
Copy OK
Track 7
Filename C:\EAC\07 - Quintet in C major Op. 1 No. 5 - 1. Allegro moderato.wav
Pre-gap length 0:00:02.69
Peak level 39.4 %
Extraction speed 7.2 X
Track quality 100.0 %
Test CRC 77A9842D
Copy CRC 77A9842D
Accurately ripped (confidence 1) [E26F9B67] (AR v2)
Copy OK
Track 8
Filename C:\EAC\08 - Quintet in C major Op. 1 No. 5 - 2. Un poco andante.wav
Peak level 31.2 %
Extraction speed 7.1 X
Track quality 100.0 %
Test CRC E20D99E4
Copy CRC E20D99E4
Accurately ripped (confidence 1) [9F18A69A] (AR v2)
Copy OK
Track 9
Filename C:\EAC\09 - Quintet in C major Op. 1 No. 5 - 3. Presto.wav
Peak level 39.4 %
Extraction speed 5.3 X
Track quality 99.9 %
Test CRC D79CD9CE
Copy CRC D79CD9CE
Accurately ripped (confidence 1) [6946F401] (AR v2)
Copy OK
Track 10
Filename C:\EAC\10 - Quartet in G major Op. 2 No. 6 - 1. Allegretto.wav
Pre-gap length 0:00:02.62
Peak level 38.8 %
Extraction speed 8.1 X
Track quality 100.0 %
Test CRC B6C080A6
Copy CRC B6C080A6
Accurately ripped (confidence 1) [3FF7F383] (AR v2)
Copy OK
Track 11
Filename C:\EAC\11 - Quartet in G major Op. 2 No. 6 -2. Largo.wav
Peak level 38.6 %
Extraction speed 7.3 X
Track quality 100.0 %
Test CRC 6AF71CD7
Copy CRC 6AF71CD7
Accurately ripped (confidence 1) [955DF15A] (AR v2)
Copy OK
Track 12
Filename C:\EAC\12 - Quartet in G major Op. 2 No. 6 -3. Allegretto.wav
Peak level 46.7 %
Extraction speed 7.1 X
Track quality 100.0 %
Test CRC 3974A2D3
Copy CRC 3974A2D3
Accurately ripped (confidence 1) [CD36B836] (AR v2)
Copy OK
Track 13
Filename C:\EAC\13 - Quintet in G major Op. 1 No. 6 - 1. Allegretto.wav
Pre-gap length 0:00:01.53
Peak level 37.6 %
Extraction speed 7.3 X
Track quality 99.9 %
Test CRC 1169DD19
Copy CRC 1169DD19
Accurately ripped (confidence 1) [B367EB42] (AR v2)
Copy OK
Track 14
Filename C:\EAC\14 - Quintet in G major Op. 1 No. 6 - 2. Largo.wav
Peak level 36.7 %
Extraction speed 8.8 X
Track quality 100.0 %
Test CRC C7811064
Copy CRC C7811064
Accurately ripped (confidence 1) [56246A66] (AR v2)
Copy OK
Track 15
Filename C:\EAC\15 - Quintet in G major Op. 1 No. 6 - 3. Tempo di minuetto.wav
Peak level 37.1 %
Extraction speed 7.0 X
Track quality 99.9 %
Test CRC C8BAF3DA
Copy CRC C8BAF3DA
Accurately ripped (confidence 1) [19AFE443] (AR v2)
Copy OK
All tracks accurately ripped
No errors occurred
End of status report
---- CUETools DB Plugin V2.1.3
[CTDB TOCID: iVzFBiO5ej5ysGqXAyacPfxcMTI-] found, Submit result: iVzFBiO5ej5ysGqXAyacPfxcMTI- has been confirmed
[eafb75ee] (1/1) Accurately ripped
==== Log checksum FCA92D4751514E37B84A5DE279AA6F727BB7CEE2BE5CEE83BED1078E8AAC1649 ====

Содержание индексной карты (.CUE)

REM GENRE Classical
REM DATE 1999
REM DISCID BC0FC90F
REM COMMENT "ExactAudioCopy v1.0b3"
PERFORMER "L'Astrйe"
TITLE "Giordani - Quartetti e quintette"
FILE "01 - Quintet in A major Op. 1 No. 3 - 1. Allegro moderato.flac" WAVE
TRACK 01 AUDIO
TITLE "Quintet in A major Op. 1 No. 3 - 1. Allegro moderato"
PERFORMER "L'Astrйe"
INDEX 01 00:00:00
FILE "02 - Quintet in A major Op. 1 No. 3 - 2. Larghetto.flac" WAVE
TRACK 02 AUDIO
TITLE "Quintet in A major Op. 1 No. 3 - 2. Larghetto"
PERFORMER "L'Astrйe"
INDEX 01 00:00:00
FILE "03 - Quintet in A major Op. 1 No. 3 - 3. Allegro, Rondo.flac" WAVE
TRACK 03 AUDIO
TITLE "Quintet in A major Op. 1 No. 3 - 3. Allegro, Rondo"
PERFORMER "L'Astrйe"
INDEX 01 00:00:00
FILE "04 - Quartet in D major Op. 2 No. 5 - 1. Allegro spiritoso.flac" WAVE
TRACK 04 AUDIO
TITLE "Quartet in D major Op. 2 No. 5 - 1. Allegro spiritoso"
PERFORMER "L'Astrйe"
INDEX 00 02:57:28
INDEX 01 00:00:00
FILE "05 - Quartet in D major Op. 2 No. 5 - 2. Largo.flac" WAVE
TRACK 05 AUDIO
TITLE "Quartet in D major Op. 2 No. 5 - 2. Largo"
PERFORMER "L'Astrйe"
INDEX 01 00:00:00
FILE "06 - Quartet in D major Op. 2 No. 5 - 3. Tempo di minuetto.flac" WAVE
TRACK 06 AUDIO
TITLE "Quartet in D major Op. 2 No. 5 - 3. Tempo di minuetto"
PERFORMER "L'Astrйe"
INDEX 01 00:00:00
FILE "07 - Quintet in C major Op. 1 No. 5 - 1. Allegro moderato.flac" WAVE
TRACK 07 AUDIO
TITLE "Quintet in C major Op. 1 No. 5 - 1. Allegro moderato"
PERFORMER "L'Astrйe"
INDEX 00 03:43:08
INDEX 01 00:00:00
FILE "08 - Quintet in C major Op. 1 No. 5 - 2. Un poco andante.flac" WAVE
TRACK 08 AUDIO
TITLE "Quintet in C major Op. 1 No. 5 - 2. Un poco andante"
PERFORMER "L'Astrйe"
INDEX 01 00:00:00
FILE "09 - Quintet in C major Op. 1 No. 5 - 3. Presto.flac" WAVE
TRACK 09 AUDIO
TITLE "Quintet in C major Op. 1 No. 5 - 3. Presto"
PERFORMER "L'Astrйe"
INDEX 01 00:00:00
FILE "10 - Quartet in G major Op. 2 No. 6 - 1. Allegretto.flac" WAVE
TRACK 10 AUDIO
TITLE "Quartet in G major Op. 2 No. 6 - 1. Allegretto"
PERFORMER "L'Astrйe"
INDEX 00 02:39:28
INDEX 01 00:00:00
FILE "11 - Quartet in G major Op. 2 No. 6 -2. Largo.flac" WAVE
TRACK 11 AUDIO
TITLE "Quartet in G major Op. 2 No. 6 -2. Largo"
PERFORMER "L'Astrйe"
INDEX 01 00:00:00
FILE "12 - Quartet in G major Op. 2 No. 6 -3. Allegretto.flac" WAVE
TRACK 12 AUDIO
TITLE "Quartet in G major Op. 2 No. 6 -3. Allegretto"
PERFORMER "L'Astrйe"
INDEX 01 00:00:00
FILE "13 - Quintet in G major Op. 1 No. 6 - 1. Allegretto.flac" WAVE
TRACK 13 AUDIO
TITLE "Quintet in G major Op. 1 No. 6 - 1. Allegretto"
PERFORMER "L'Astrйe"
INDEX 00 02:02:13
INDEX 01 00:00:00
FILE "14 - Quintet in G major Op. 1 No. 6 - 2. Largo.flac" WAVE
TRACK 14 AUDIO
TITLE "Quintet in G major Op. 1 No. 6 - 2. Largo"
PERFORMER "L'Astrйe"
INDEX 01 00:00:00
FILE "15 - Quintet in G major Op. 1 No. 6 - 3. Tempo di minuetto.flac" WAVE
TRACK 15 AUDIO
TITLE "Quintet in G major Op. 1 No. 6 - 3. Tempo di minuetto"
PERFORMER "L'Astrйe"
INDEX 01 00:00:00

Треклист

Quintet for harpsichord, two violins, viola and cello in A major, Op. 1 No. 3:
1. I. Allegro moderato
2. II. Larghetto
3. III. Allegro, Rondo
Quartet for flute, violin, viola and cello in D major Op. 2 No. 5:
4. I. Allegro spiritoso
5. II. Largo
6. III. Tempo di minuetto
Quintet for harpsichord, two violins, vioIa and cello in C major Op. 1 No. 5:
7. I. Allegro moderato
8. II. Un poco andante
9. III. Presto
Quartet for flute, vioIin, viola and cello in G major Op. 2 No. 6:
10. I. Allegretto
11. II. Largo
12. III. Allegretto
Quintet for harpsichord, two violins, viola and cello in G major Op. 1 No. 6:
13. I. Allegretto
14. II. Largo
15. III. Tempo di minuetto



Показать сообщения:    

Текущее время: 05-Дек 11:31

Часовой пояс: UTC + 3


Вы не можете начинать темы
Вы не можете отвечать на сообщения
Вы не можете редактировать свои сообщения
Вы не можете удалять свои сообщения
Вы не можете голосовать в опросах
Вы не можете прикреплять файлы к сообщениям
Вы не можете скачивать файлы