(Classical) Mozart: 'Hunt' & 'Dissonance' Quartets • Haydn: 'Emperor' Quartet - Emerson String Quartet - 1989, FLAC (image+.cue) lossless


 

[Цитировать]

Mozart: 'Hunt' & 'Dissonance' Quartets • Haydn: 'Emperor' Quartet - Emerson String Quartet
Жанр: Classical
Страна-производитель диска: Germany
Год издания диска: 1989
Издатель (лейбл): Deutsche Grammophon
Дата записи: 1988
Аудиокодек: FLAC
Тип рипа: image+.cue
Битрейт аудио: lossless
Продолжительность: 78:06
Источник: собственный рип
Наличие сканов в содержимом раздачи: да
Треклист:
Wolfgang Amadeus Mozart (1756-1791)
[1]-[4] String Quartet in B flat major, K.458 'Hunt'
[5]-[8] String Quartet in C major, K.465 'Dissonance'
Joseph Haydn (1732-1809)
[9]-[12] String Quartet in C major, Op.76 No.3 'Emperor'
Исполнители:
Emerson String Quartet
Philip Setzer violin
Eugene Drucker violin
Lawrence Dutton viola
David Finckel cello

Лог создания рипа

Exact Audio Copy V1.0 beta 3 from 29. August 2011
EAC extraction logfile from 6. December 2014, 18:15
Emerson String Quartet / Mozart - 'Hunt' & 'Dissonance' Quartets; Haydn - 'Emperor' Quartet
Used drive : HL-DT-STDVDRAM GU70N Adapter: 0 ID: 0
Read mode : Secure
Utilize accurate stream : Yes
Defeat audio cache : Yes
Make use of C2 pointers : No
Read offset correction : 48
Overread into Lead-In and Lead-Out : No
Fill up missing offset samples with silence : Yes
Delete leading and trailing silent blocks : No
Null samples used in CRC calculations : Yes
Used interface : Native Win32 interface for Win NT & 2000
Used output format : User Defined Encoder
Selected bitrate : 128 kBit/s
Quality : High
Add ID3 tag : No
Command line compressor : C:\Program Files (x86)\Exact Audio Copy\Flac\flac.exe
Additional command line options : -V -8 -T "Date=%year%" -T "Genre=%genre%" %source%
TOC of the extracted CD
Track | Start | Length | Start sector | End sector
---------------------------------------------------------
1 | 0:00.33 | 8:26.00 | 33 | 37982
2 | 8:26.33 | 4:08.37 | 37983 | 56619
3 | 12:34.70 | 7:06.50 | 56620 | 88619
4 | 19:41.45 | 6:12.63 | 88620 | 116582
5 | 25:54.33 | 10:35.37 | 116583 | 164244
6 | 36:29.70 | 7:39.63 | 164245 | 198732
7 | 44:09.58 | 4:41.50 | 198733 | 219857
8 | 48:51.33 | 5:33.00 | 219858 | 244832
9 | 54:24.33 | 7:00.00 | 244833 | 276332
10 | 61:24.33 | 6:37.62 | 276333 | 306169
11 | 68:02.20 | 4:36.20 | 306170 | 326889
12 | 72:38.40 | 5:28.18 | 326890 | 351507
Range status and errors
Selected range
Filename C:\temp\Mozart - 'Hunt' & 'Dissonance' Quartets; Haydn - 'Emperor' Quartet\Mozart - 'Hunt' & 'Dissonance' Quartets; Haydn - 'Emperor' Quartet.wav
Peak level 100.0 %
Extraction speed 2.3 X
Range quality 100.0 %
Test CRC 6D7B1A47
Copy CRC 6D7B1A47
Copy OK
No errors occurred
AccurateRip summary
Track 1 accurately ripped (confidence 4) [20C8971B] (AR v2)
Track 2 accurately ripped (confidence 4) [43278DE2] (AR v2)
Track 3 accurately ripped (confidence 4) [E7530997] (AR v2)
Track 4 accurately ripped (confidence 4) [44989664] (AR v2)
Track 5 accurately ripped (confidence 4) [85797020] (AR v2)
Track 6 accurately ripped (confidence 4) [E32FE22E] (AR v2)
Track 7 accurately ripped (confidence 4) [02098F19] (AR v2)
Track 8 accurately ripped (confidence 4) [53FC3233] (AR v2)
Track 9 accurately ripped (confidence 4) [ABFE01CE] (AR v2)
Track 10 accurately ripped (confidence 4) [EF3D4781] (AR v2)
Track 11 accurately ripped (confidence 4) [58A76130] (AR v2)
Track 12 accurately ripped (confidence 4) [1FEC5C4F] (AR v2)
All tracks accurately ripped
End of status report
==== Log checksum C5C2D02F3C57E74C3E6CD5A783DD776B9CF73675F134613B1EE3BA0FDB31BBC4 ====



Показать сообщения:    

Текущее время: 04-Дек 15:18

Часовой пояс: UTC + 3


Вы не можете начинать темы
Вы не можете отвечать на сообщения
Вы не можете редактировать свои сообщения
Вы не можете удалять свои сообщения
Вы не можете голосовать в опросах
Вы не можете прикреплять файлы к сообщениям
Вы не можете скачивать файлы