(Opera) Weill • Die Sieben Todsunden (Lenya, Katona, Roth - Hamburger Sinfonie Orchester, Bruckner-Ruggeberg) • Der Jasager (Bert, Protschka, Vohla - Dusseldorfer Kammerorchester, Kohler) - 2007, APE (image+.cue) lossless


 

[Цитировать]

Kurt Weill • Die Sieben Todsunden • Der Jasager
Жанр: Opera
Страна-производитель диска: Germany
Год издания диска: 2007
Издатель (лейбл): Cantus Classics
Номер по каталогу: 5.0091
Дата записи: 1954
Аудиокодек: APE
Тип рипа: image+.cue
Битрейт аудио: lossless
Продолжительность: 35'38+29'41
Источник: собственный рип
Наличие сканов в содержимом раздачи: да
Треклист / Исполнители :
Kurt Weill - Die Sieben Todsünden
Ballet with singing
Text: Bertold Brecht
Треклист
1. Prolog
2. Faulheit
3. Stolz
4. Zorn
5. Völlerei
6. Unzucht
7. Habsucht
8. Neid
Исполнители
Lotte Lenya, soprano
Julius Katona, tenor
Fritz Göllnitz, tenor
Siegmund Roth, bass
Ernst Poettgen, bass
Hamburger Sinfonie Orchester
Wilhelm Brückner-Rüggeberg, conductorKurt Weill - Der Jasager
Opera in 2 Acts
Text: Bertold Brecht
Треклист
1. Act I Einleitung
2. Wichtig zu lemen
3. Ich bin der Lehrer
4. Ich bin lange nicht hier gewesen
5. Ich muss etwas sagen
6. Ich muss noch einmal mit deiner Mutter reden
7. Seit dem Tag
8. Sie sahen das keine Vorstellungen
9. Act II Die Leute haben die Reise
10. Wir sind schnell hinangestegen
11. Hört Ihr?
12. Bist du krank?
13. Was? Ihr wollt dieses Kind
14. Höre gut zu
15. Verlangst du?
16. Dann namen die Freunde den Krug
17. Wichtig zu lernen
Исполнители
Lys Bert, mezzo-soprano
Joseph Protschka, tenor
Willibald Vohla, bariton
Walter Jenckel, tenor
Hans Markus, tenor
Alfons Holte, bariton
Düsseldorfer Kinderchor und Kammerorchester
Siegfried Kohler, conductor

Лог создания рипа

CD1

Exact Audio Copy V1.0 beta 3 from 29. August 2011
EAC extraction logfile from 3. September 2014, 16:38
Weill / Die Sieben Todsünden, Brückner-Rüggeberg
Used drive : TS8XDVDSTRANSCEND Adapter: 1 ID: 1
Read mode : Secure
Utilize accurate stream : Yes
Defeat audio cache : Yes
Make use of C2 pointers : No
Read offset correction : 6
Overread into Lead-In and Lead-Out : No
Fill up missing offset samples with silence : Yes
Delete leading and trailing silent blocks : No
Null samples used in CRC calculations : Yes
Used interface : Native Win32 interface for Win NT & 2000
Used output format : Monkey's Audio Lossless Encoder
Selected bitrate : High Lossless Compression
Quality : High
Add ID3 tag : No
Command line compressor : C:\Program Files (x86)\Exact Audio Copy\MAC\MAC.exe
TOC of the extracted CD
Track | Start | Length | Start sector | End sector
---------------------------------------------------------
1 | 0:00.00 | 3:49.08 | 0 | 17182
2 | 3:49.08 | 4:28.68 | 17183 | 37350
3 | 8:18.01 | 4:44.37 | 37351 | 58687
4 | 13:02.38 | 4:15.26 | 58688 | 77838
5 | 17:17.64 | 3:09.40 | 77839 | 92053
6 | 20:27.29 | 5:30.31 | 92054 | 116834
7 | 25:57.60 | 3:14.25 | 116835 | 131409
8 | 29:12.10 | 4:41.34 | 131410 | 152518
9 | 33:53.44 | 1:45.13 | 152519 | 160406
Range status and errors
Selected range
Filename D:\EAC\Weill - Die Sieben Todsünden, Brückner-Rüggeberg.wav
Peak level 86.9 %
Extraction speed 1.8 X
Range quality 99.9 %
Test CRC 30ADEC9D
Copy CRC 30ADEC9D
Copy OK
No errors occurred
AccurateRip summary
Track 1 accurately ripped (confidence 2) [617E152F] (AR v1)
Track 2 accurately ripped (confidence 2) [587E5A91] (AR v1)
Track 3 accurately ripped (confidence 2) [4E36BA61] (AR v1)
Track 4 accurately ripped (confidence 2) [A3E048AA] (AR v1)
Track 5 accurately ripped (confidence 2) [0273C6C6] (AR v1)
Track 6 accurately ripped (confidence 2) [2EFEA7C8] (AR v1)
Track 7 accurately ripped (confidence 2) [585AB4E7] (AR v1)
Track 8 accurately ripped (confidence 2) [0067726B] (AR v1)
Track 9 accurately ripped (confidence 1) [AC218E0E] (AR v1)
All tracks accurately ripped
End of status report
---- CUETools DB Plugin V2.1.3
[CTDB TOCID: LMiq05u6_rj0n5BzSZDRhQB5vXo-] disk not present in database, Submit result: unrecognized or virtual drive
==== Log checksum 24FE4A2495CCB9B28C8D3C2CE54B4955C83B8E106157DA664BAD1B8A4BC4C935 ====

CD2

Exact Audio Copy V1.0 beta 3 from 29. August 2011
EAC extraction logfile from 3. September 2014, 16:22
Weill / Der Jasager, Kohler
Used drive : TSSTcorpCDDVDW SE-208AB Adapter: 1 ID: 0
Read mode : Secure
Utilize accurate stream : Yes
Defeat audio cache : Yes
Make use of C2 pointers : No
Read offset correction : 6
Overread into Lead-In and Lead-Out : No
Fill up missing offset samples with silence : Yes
Delete leading and trailing silent blocks : No
Null samples used in CRC calculations : Yes
Used interface : Native Win32 interface for Win NT & 2000
Used output format : Monkey's Audio Lossless Encoder
Selected bitrate : High Lossless Compression
Quality : High
Add ID3 tag : No
Command line compressor : C:\Program Files (x86)\Exact Audio Copy\MAC\MAC.exe
TOC of the extracted CD
Track | Start | Length | Start sector | End sector
---------------------------------------------------------
1 | 0:00.00 | 0:27.24 | 0 | 2048
2 | 0:27.24 | 1:01.69 | 2049 | 6692
3 | 1:29.18 | 1:49.42 | 6693 | 14909
4 | 3:18.60 | 1:35.37 | 14910 | 22071
5 | 4:54.22 | 2:07.05 | 22072 | 31601
6 | 7:01.27 | 1:20.39 | 31602 | 37640
7 | 8:21.66 | 2:51.24 | 37641 | 50489
8 | 11:13.15 | 2:10.04 | 50490 | 60243
9 | 13:23.19 | 0:55.12 | 60244 | 64380
10 | 14:18.31 | 1:50.71 | 64381 | 72701
11 | 16:09.27 | 0:47.57 | 72702 | 76283
12 | 16:57.09 | 1:19.62 | 76284 | 82270
13 | 18:16.71 | 2:11.70 | 82271 | 92165
14 | 20:28.66 | 2:05.29 | 92166 | 101569
15 | 22:34.20 | 3:57.74 | 101570 | 119418
16 | 26:32.19 | 1:35.37 | 119419 | 126580
17 | 28:07.56 | 1:33.67 | 126581 | 133622
Range status and errors
Selected range
Filename D:\EAC\Weill - Der Jasager, Kohler.wav
Peak level 98.5 %
Extraction speed 4.2 X
Range quality 100.0 %
Test CRC 086C2F08
Copy CRC 086C2F08
Copy OK
No errors occurred
AccurateRip summary
Track 1 accurately ripped (confidence 2) [CA021CF8] (AR v1)
Track 2 accurately ripped (confidence 2) [8E771F25] (AR v1)
Track 3 accurately ripped (confidence 2) [EC54FC55] (AR v1)
Track 4 accurately ripped (confidence 2) [1486DE19] (AR v1)
Track 5 accurately ripped (confidence 2) [31A0C973] (AR v1)
Track 6 accurately ripped (confidence 2) [47F9F915] (AR v1)
Track 7 accurately ripped (confidence 2) [283572F5] (AR v1)
Track 8 accurately ripped (confidence 2) [48E077AD] (AR v1)
Track 9 accurately ripped (confidence 2) [9DF8D1C4] (AR v1)
Track 10 accurately ripped (confidence 2) [997493B0] (AR v1)
Track 11 accurately ripped (confidence 2) [52986567] (AR v1)
Track 12 accurately ripped (confidence 2) [A378C069] (AR v1)
Track 13 accurately ripped (confidence 1) [0FC4C159] (AR v1)
Track 14 accurately ripped (confidence 2) [B486AC61] (AR v1)
Track 15 accurately ripped (confidence 2) [FDFD8C2B] (AR v1)
Track 16 accurately ripped (confidence 2) [6303E47A] (AR v1)
Track 17 accurately ripped (confidence 2) [CEBFBD2D] (AR v1)
All tracks accurately ripped
End of status report
---- CUETools DB Plugin V2.1.3
[CTDB TOCID: ipuuuAl7puO55WQbYwi8pOJj0Qc-] disk not present in database, Submit result: ipuuuAl7puO55WQbYwi8pOJj0Qc- has been uploaded
==== Log checksum 3EFC36D0B8039BDA2AB4FB69EFCEE7EB0EC6C076B14F7937CBC5DD8DE295A82C ====

Содержание индексной карты (.CUE)

CD1

REM GENRE Opera
REM DATE 1956
REM DISCID 6A085A09
REM COMMENT "ExactAudioCopy v1.0b3"
PERFORMER "Weill"
TITLE "Die Sieben Todsünden, Brückner-Rüggeberg"
FILE "Weill - Die Sieben Todsünden, Brückner-Rüggeberg.ape" WAVE
TRACK 01 AUDIO
TITLE "Prolog"
PERFORMER "Weill"
ISRC 000000000000
INDEX 01 00:00:00
TRACK 02 AUDIO
TITLE "Faulheit"
PERFORMER "Weill"
ISRC 000000000000
INDEX 01 03:49:08
TRACK 03 AUDIO
TITLE "Stolz"
PERFORMER "Weill"
ISRC 000000000000
INDEX 01 08:18:01
TRACK 04 AUDIO
TITLE "Zorn"
PERFORMER "Weill"
ISRC 000000000000
INDEX 01 13:02:38
TRACK 05 AUDIO
TITLE "Völlerei"
PERFORMER "Weill"
ISRC 000000000000
INDEX 01 17:17:64
TRACK 06 AUDIO
TITLE "Unzucht"
PERFORMER "Weill"
ISRC 000000000000
INDEX 01 20:27:29
TRACK 07 AUDIO
TITLE "Habsucht"
PERFORMER "Weill"
ISRC 000000000000
INDEX 01 25:57:60
TRACK 08 AUDIO
TITLE "Neid"
PERFORMER "Weill"
ISRC 000000000000
INDEX 01 29:12:10
TRACK 09 AUDIO
TITLE "Epilog"
PERFORMER "Weill"
ISRC 000000000000
INDEX 01 33:53:44

CD2

REM GENRE Opera
REM DATE 1954
REM DISCID D606F511
REM COMMENT "ExactAudioCopy v1.0b3"
PERFORMER "Weill"
TITLE "Der Jasager, Kohler"
FILE "Weill - Der Jasager, Kohler.ape" WAVE
TRACK 01 AUDIO
TITLE "Act I Einleitung"
PERFORMER "Weill"
ISRC 000000000000
INDEX 01 00:00:00
TRACK 02 AUDIO
TITLE "Wichtig zu lemen"
PERFORMER "Weill"
ISRC 000000000000
INDEX 01 00:27:24
TRACK 03 AUDIO
TITLE "Ich bin der Lehrer"
PERFORMER "Weill"
ISRC 000000000000
INDEX 01 01:29:18
TRACK 04 AUDIO
TITLE "Ich bin lange nicht hier gewesen"
PERFORMER "Weill"
ISRC 000000000000
INDEX 01 03:18:60
TRACK 05 AUDIO
TITLE "Ich muss etwas sagen"
PERFORMER "Weill"
ISRC 000000000000
INDEX 01 04:54:22
TRACK 06 AUDIO
TITLE "Ich muss noch einmal mit deiner Mutter reden"
PERFORMER "Weill"
ISRC 000000000000
INDEX 01 07:01:27
TRACK 07 AUDIO
TITLE "Seit dem Tag"
PERFORMER "Weill"
ISRC 000000000000
INDEX 01 08:21:66
TRACK 08 AUDIO
TITLE "Sie sahen das keine Vorstellungen"
PERFORMER "Weill"
ISRC 000000000000
INDEX 01 11:13:15
TRACK 09 AUDIO
TITLE "Act II Die Leute haben die Reise"
PERFORMER "Weill"
ISRC 000000000000
INDEX 01 13:23:19
TRACK 10 AUDIO
TITLE "Wir sind schnell hinangestegen"
PERFORMER "Weill"
ISRC 000000000000
INDEX 01 14:18:31
TRACK 11 AUDIO
TITLE "Hört Ihr?"
PERFORMER "Weill"
ISRC 000000000000
INDEX 01 16:09:27
TRACK 12 AUDIO
TITLE "Bist du krank?"
PERFORMER "Weill"
ISRC 000000000000
INDEX 01 16:57:09
TRACK 13 AUDIO
TITLE "Was? Ihr wollt dieses Kind"
PERFORMER "Weill"
ISRC 000000000000
INDEX 01 18:16:71
TRACK 14 AUDIO
TITLE "Höre gut zu"
PERFORMER "Weill"
ISRC 000000000000
INDEX 01 20:28:66
TRACK 15 AUDIO
TITLE "Verlangst du?"
PERFORMER "Weill"
ISRC 000000000000
INDEX 01 22:34:20
TRACK 16 AUDIO
TITLE "Dann namen die Freunde den Krug"
PERFORMER "Weill"
ISRC 000000000000
INDEX 01 26:32:19
TRACK 17 AUDIO
TITLE "Wichtig zu lernen"
PERFORMER "Weill"
ISRC 000000000000
INDEX 01 28:07:56



Показать сообщения:    

Текущее время: 03-Дек 22:41

Часовой пояс: UTC + 3


Вы не можете начинать темы
Вы не можете отвечать на сообщения
Вы не можете редактировать свои сообщения
Вы не можете удалять свои сообщения
Вы не можете голосовать в опросах
Вы не можете прикреплять файлы к сообщениям
Вы не можете скачивать файлы