Звуковое Шоссе - Новый Орлеан, (Эпизод 6) 2014 / Foo Fighters: Sonic Highways - New Orleans (Episode 6) 2014 (Дэйв Грол/Dave Grohl) [21.11.2014, Документальный, музыкальный, HDTVRip-AVC]


Статистика раздачи [Обновить пиров]
Размер:  488 MB   |    Зарегистрирован:  8 месяцев 15 дней   |    Скачан:  0 раз

Полного источника не было: Никогда

 
   
 
 
 

[Цитировать]

Звуковое Шоссе - Новый Орлеан, (Эпизод 6) 2014 / Foo Fighters: Sonic Highways - New Orleans (Episode 6) 2014
Дата/Год выпуска: 21.11.2014
Страна: США
Жанр: Документальный, музыкальный
Продолжительность: 00:59:08
Перевод: Любительский (многоголосый закадровый)
Доп. инфо о переводе: Abandoned Studio
Русские субтитры: нет
Оригинальная аудиодорожка: нет
Режиссер: Дэйв Грол/Dave Grohl
Телеканал: HBO
Описание: Дэйв обсуждает уникальную историю музыки Нового Орлеана с Доктором Джоном, Алланом Туссантом и Кэриллом Нэвиллом. Группа записывается в Preservation Hal и выступает вместе с Preservation Hall Jazz Band. Песня "В чистом виде" записывается во время этого эпизода.
Сэмпл: Сэмпл
качество: HDTVRip
формат: MP4
Видео: Кодек: H.264 (NTSC), Разрешение кадра: 624 x 350 (16:9), Битрейт: 995 kbps, 23.976 fps
Аудио: Кодек: AAC, Битрейт: 157 kbps, Частота дискретизации: 48000 kHz, Stereo

MediaInfo

Complete name : /Users/applesoranjes/Desktop/Record/Sonic Highways/Episode 6/New Orleans, Episode 6.mp4
Format : MPEG-4
Codec ID : M4V
File size : 488 MiB
Duration : 59mn 7s
Overall bit rate mode : Variable
Overall bit rate : 1 155 Kbps
Encoded date : UTC 2015-04-11 20:21:49
Tagged date : UTC 2015-04-11 20:22:02
©TIM : 00:00:00:00
©TSC : 24000
©TSZ : 1001
Video
ID : 1
Format : AVC
Format/Info : Advanced Video Codec
Format profile : Main@L3.1
Format settings, CABAC : No
Format settings, ReFrames : 2 frames
Codec ID : avc1
Codec ID/Info : Advanced Video Coding
Duration : 59mn 7s
Source duration : 59mn 7s
Bit rate : 995 Kbps
Width : 624 pixels
Height : 350 pixels
Display aspect ratio : 16:9
Frame rate mode : Variable
Frame rate : 23.976 fps
Minimum frame rate : 23.976 fps
Maximum frame rate : 24.000 fps
Standard : NTSC
Color space : YUV
Chroma subsampling : 4:2:0
Bit depth : 8 bits
Scan type : Progressive
Bits/(Pixel*Frame) : 0.190
Stream size : 421 MiB (86%)
Source stream size : 421 MiB (86%)
Language : English
Encoded date : UTC 2015-04-11 20:21:49
Tagged date : UTC 2015-04-11 20:21:49
mdhd_Duration : 3547711
Audio
ID : 2
Format : AAC
Format/Info : Advanced Audio Codec
Format profile : LC
Codec ID : 40
Duration : 59mn 7s
Source duration : 59mn 7s
Bit rate mode : Variable
Bit rate : 157 Kbps
Maximum bit rate : 261 Kbps
Channel(s) : 2 channels
Channel positions : Front: L R
Sampling rate : 48.0 KHz
Compression mode : Lossy
Stream size : 66.6 MiB (14%)
Source stream size : 66.6 MiB (14%)
Language : English
Encoded date : UTC 2015-04-11 20:21:49
Tagged date : UTC 2015-04-11 20:21:49
mdhd_Duration : 3547755

Скриншоты

[teatrix.ru].t20911.torrent 
Торрент: Зарегистрирован [ 2016-03-20 00:58 ] · A85FBD3A6599FFF9E2619F48589AACB0EC41D83F

Скачать .torrent

Скачать

20 KB

Статус: проверено
Скачан: 0 раз
Размер: 488 MB
terms.php



Быстрый ответ

Имя:

      
Для отправки сообщений необходимо включить JavaScript
Показать сообщения:    

Текущее время: 04-Дек 21:25

Часовой пояс: UTC + 3


Вы можете начинать темы
Вы можете отвечать на сообщения
Вы не можете редактировать свои сообщения
Вы не можете удалять свои сообщения
Вы не можете голосовать в опросах
Вы не можете прикреплять файлы к сообщениям
Вы можете скачивать файлы