Пик популярности - Таисия Повалий (26.10.2014) [2014 г., Ток-Шоу, Документальный, Биография, DVB]


Статистика раздачи [Обновить пиров]
Размер:  1.78 GB   |    Зарегистрирован:  8 месяцев 19 дней   |    Скачан:  0 раз

Полного источника не было: Никогда

 
   
 
 
 

[Цитировать]

Пик популярности - Таисия Повалий (26.10.2014)
Страна: Россия
Жанр: Ток-Шоу, Документальный, Биография
Продолжительность: 01:01:04
Язык: Русский
Дата/Год выпуска: 26.10.2014 г.
Телеканал: RU.TV
Описание: Слава – это самое сложное испытание, которое должен пройти каждый артист. Многие не выдерживают. Уходят. Ломаются. Но многие и остаются. “ПИК ПОПУЛЯРНОСТИ” – это новый цикл документальных передач об обратной стороне славы. О том, что красивая жизнь артиста, к которой мы так привыкли - на самом деле полна страданий, переживаний и боли. Малоизвестные факты биографии, редкие кадры, архивные хроники и откровенные признания звезд совсем скоро на телеканале RU.TV!-В этом выпуске Вы узнаете о нелегкой судьбе Таисии Повалий, о том как она пережила переворот в стране, о планах звезды на будущее....
Источник: Собственный рип
Доп. информация: Рип чистый. Без посторонних надписей. Выкладывается как есть.

Качество: DVB
Контейнер: MPEG-PS
Видео кодек: MPEG2
Аудио кодек: MPEG1
Видео: MPEG2 720x576 (4:3) 25.000fps 3 902 Kbps, 0.376 bit/pixel
Аудио: MPEG1 48000Hz stereo 192 Кбит/сек

Скриншоты

MediaInfo

Общее
Полное имя : D:\Раздачи\Таисия Повалий\Пик популярности - 2014\Пик популярности - Таисия Повалий (26.10.2014)(2014, Ток-Шоу, Документальный, Биография, DVB) (by Nokia5150).mpg
Формат : MPEG-PS
Размер файла : 1,78 Гбайт
Продолжительность : 1 ч. 1 м.
Режим общего битрейта : Переменный
Общий поток : 4177 Кбит/сек
Видео
Идентификатор : 224 (0xE0)
Формат : MPEG Video
Версия формата : Version 2
Профиль формата : Main@Main
Параметр BVOP формата : Нет
Параметр матрицы формата : По умолчанию
Параметр GOP формата : N=12
Продолжительность : 1 ч. 1 м.
Вид битрейта : Переменный
Битрейт : 3902 Кбит/сек
Максимальный битрейт : 9000 Кбит/сек
Ширина : 720 пикселей
Высота : 576 пикселей
Соотношение сторон : 4:3
Частота кадров : 25,000 кадров/сек
Стандарт вещания : PAL
Цветовое пространство : YUV
Субдискретизация насыщенности : 4:2:0
Битовая глубина : 8 бит
Тип развёртки : Прогрессивная
Метод сжатия : С потерями
Бит/(Пиксели*Кадры) : 0.376
Временной код первого кадра : 00:00:00:00
Оригинал временного кода : Group of pictures header
Размер потока : 1,66 Гбайт (93%)
Аудио
Идентификатор : 192 (0xC0)
Формат : MPEG Audio
Версия формата : Version 1
Профиль формата : Layer 2
Продолжительность : 1 ч. 1 м.
Вид битрейта : Постоянный
Битрейт : 192 Кбит/сек
Каналы : 2 канала
Частота : 48,0 КГц
Метод сжатия : С потерями
Размер потока : 83,9 Мбайт (5%)

[teatrix.ru].t20913.torrent 
Торрент: Зарегистрирован [ 2016-03-20 00:58 ] · DCB0758A3CB9A190A4E5C645E2141079A20C6360

Скачать .torrent

Скачать

18 KB

Статус: проверено
Скачан: 0 раз
Размер: 1.78 GB
terms.php



Быстрый ответ

Имя:

      
Для отправки сообщений необходимо включить JavaScript
Показать сообщения:    

Текущее время: 08-Дек 14:52

Часовой пояс: UTC + 3


Вы можете начинать темы
Вы можете отвечать на сообщения
Вы не можете редактировать свои сообщения
Вы не можете удалять свои сообщения
Вы не можете голосовать в опросах
Вы не можете прикреплять файлы к сообщениям
Вы можете скачивать файлы