[TR24][OF] Maria Callas - Callas portrays Verdi Heroines: Lady Macbeth, Abigaille, Elvira, Elisabetta de Valois [1958] (Maria Callas, Philharmonia Orchestra, Nicola Rescigno) - 2014 (Classical, Opera)


Статистика раздачи [Обновить пиров]
Размер:  1010 MB   |    Зарегистрирован:  8 месяцев 22 дня   |    Скачан:  1 раз

Полного источника не было: 8 месяцев

 
   
 
 
 

[Цитировать]

Callas portrays Verdi Heroines
Maria Callas · Philharmonia Orchestra · Nicola Rescigno
- Год издания: 2014
Жанр: Classical, Opera
Издатель (лейбл): Warner Classics
Продолжительность: 00:49:27
Наличие сканов: Covers, Digital Booklet
- -
Giuseppe Verdi (1813-1901)
Macbeth
01. Act 1: "Nel dì della vittoria ....Vienil t'affretta" (Lady Macbeth, Chorus) (7:49)
02. Act 2: "La luce langue" (Lady Macbeth) (4:11)
03. Act 4: "Una macchia è qui tuttora" (Lady Macbeth, Doctor, Woman) (11:18)
Nabucco
04. Act 2: "Ben io t'invenni ... Anch'io dischiuso un giorno" (Abigaille) (9:09)
Ernani
05. Act 1: "Surta è la notte .... Ernani! Ernani, involami" (Elvira) (6:17)
Don Carlo
06. Act 5: "Tu che le vanità" (Elisabetta) (10:44)
-Maria Callas, soprano
Philharmonia Orchestra
Nicola Rescigno, conductor
Recorded: 19–21, 24.IX.1958, No.1 Studio, Abbey Road, London
-Контейнер: FLAC (*.flac)
Тип рипа: tracks
Разрядность: 24bit / 96kHz
Количество каналов: 2.0
-О релизе
Maria Callas’s recital discs occupy a central place in her recorded legacy, alongside her complete opera recordings. The Verdi featured three roles she had sung in the opera house: Abigaille, brimming with youthful and impressive vocal grandeur at the San Carlo in Naples in 1949 (her earliest complete live opera recording to have survived); Lady Macbeth at the opening of the 1952–3 La Scala season, one of her greatest triumphs (the live recording was reissued by EMI); and Elisabetta (Élisabeth de Valois) at La Scala in 1954 (of which we have no recording), a character whose aria ‘Tu che le vanità’ would become a central feature of the concerts she gave between 1959 and 1962.
The remaining role, Elvira from Ernani, she never sang on stage but the aria included here, a mix of drama and sheer enchantment (note her admirable breath control in the cabaletta) was another of Callas’s favourites at the time, performed in concert in Amsterdam in 1959 (recording issued by EMI), Brussels, Bilbao, Berlin, Munich and so on. The genius of Callas, whom Luchino Visconti considered the greatest tragic actress since Eleonora Duse, meant that she could create as much dramatic tension in recital or in the studio as she could on stage, as any comparison between this album and the recordings of her stage performances will prove to magnificent effect.
Producer: Walter Legge
Recording engineer: Harold Davidson
Remastered from original tapes at Abbey Road Studios.

ОтчётыДинамический диапазон

foobar2000 1.2.2 / Dynamic Range Meter 1.1.1
log date: 2015-04-11 18:47:19
--------------------------------------------------------------------------------
Analyzed: Maria Callas, Philharmonia Orchestra, Nicola Rescigno / Callas portrays Verdi Heroines (1958)
--------------------------------------------------------------------------------
DR Peak RMS Duration Track
--------------------------------------------------------------------------------
DR10 -1.71 dB -16.18 dB 7:49 ?-Macbeth: Act 1: "Nel dì della vittoria ....Vienil t'affretta" (Lady Macbeth, Chorus)
DR9 -1.37 dB -15.48 dB 4:11 ?-Macbeth: Act 2: "La luce langue" (Lady Macbeth)
DR11 -1.40 dB -18.43 dB 11:18 ?-Macbeth: Act 4: "Una macchia è qui tuttora" (Lady Macbeth, Doctor, Woman)
DR11 -0.10 dB -17.56 dB 9:09 ?-Nabucco: Act 2: "Ben io t'invenni ... Anch'io dischiuso un giorno" (Abigaille)
DR9 -0.41 dB -15.85 dB 6:17 ?-Ernani: Act 1: "Surta è la notte .... Ernani! Ernani, involami" (Elvira)
DR11 -0.84 dB -17.86 dB 10:44 ?-Don Carlo: Act 5: "Tu che le vanità" (Elisabetta)
--------------------------------------------------------------------------------
Number of tracks: 6
Official DR value: DR10
Samplerate: 96000 Hz
Channels: 2
Bits per sample: 24
Bitrate: 2805 kbps
Codec: FLAC
================================================================================

Скриншот спектра частот

Доп. информация

При скачивании, если необходимо, переименуйте папку, в которой будет находиться альбомБольшая просьба к скачавшим поддерживать раздачу! Помогайте другим, ведь вам тоже может понадобиться помощь!Не забываем говорить "Спасибо"!Комментарии приветствуются!
Maria Callas Hi-Res
[teatrix.ru].t20916.torrent 
Торрент: Зарегистрирован [ 2016-03-20 00:58 ] · E3D2D4D80E0B8F9A7241B7D43C3A3F359D89FE75

Скачать .torrent

Скачать

21 KB

Статус: проверено
Скачан: 1 раз
Размер: 1010 MB
terms.php



Быстрый ответ

Имя:

      
Для отправки сообщений необходимо включить JavaScript
Показать сообщения:    

Текущее время: 11-Дек 10:59

Часовой пояс: UTC + 3


Вы можете начинать темы
Вы можете отвечать на сообщения
Вы не можете редактировать свои сообщения
Вы не можете удалять свои сообщения
Вы не можете голосовать в опросах
Вы не можете прикреплять файлы к сообщениям
Вы можете скачивать файлы