Юрий Гагарин: редкие кадры кинолюбителей (Андрей Скуратович) [1962 - 1963, Биографический, VHSRip]


Статистика раздачи [Обновить пиров]
Размер:  192 MB   |    Зарегистрирован:  8 месяцев 21 день   |    Скачан:  0 раз

Полного источника не было: Никогда

 
   
 
 
 

[Цитировать]

Юрий Гагарин: редкие кадры кинолюбителей
Дата/Год выпуска: 1962 - 1963
Страна: СССР
Жанр: Биографический
Продолжительность: 00:12:33
Перевод: Не требуется
Русские субтитры: нет

Режиссер: Андрей Скуратович
Описание: Вступительное слово: Валерий Петрович Лебедев.
Снимал материал Валерий Петрович Лебедев, он же вначале фильма поясняет обстоятельства, при которых была произведена любительская съемка.
Юрий Гагарин играет в волейбол на спортплощадке в Крыму. Космонавт поднимает на руки дочку минчанина. Гагарин с Терешковой выступают за трибуной в ГДР вскоре после полета первой женщины в космос.

Доп. информация: Релиз:

Съемка в Крыму: Валерий Лебедев
Съемка в ГДР: Петр Лебедев
- Валерий Лебедев снимал кадры, где Гагарин играет в волейбол. Есть там и момент, когда космонавт поднимает на руки дочку минчанина. Тогда Лебедев был аспирантом минского политеха. Семья у них большая, всех по свету разнесло. Однажды в разговоре я услышал, что были у них съемки с Гагариным, стал просить всех членов семьи отыскать кинопленки. Как водится, все лежало в каком-то дальнем углу, в чулане, на антресолях, в гараже, на даче, - рассказывает Андрей Скуратович. - Потихоньку собралось. На пленке сохранился момент, где Гагарин поднимает на руки дочку Валерия Лебедева Юлю - и в следующий миг она уже стоит рядом с ним. Оказалось, что середина кадра, где космонавт держит девочку на руках, была вырезана и вклеена в какую-то семейную кинопленку, которую пока не удалось найти.
Оцифрованные кинокадры с Гагариным собраны воедино, на них наложена музыка Евгения Глебова. Подбирала музыку специально для ролика лично вдова белорусского композитора Лариса Глебова. Эта семья была знакома с семьей авторов любительских кадров.
Андрей Скуратович весь отснятый материал смонтировал.
Цифровую обработку видеоматериала выполнил pmv.
Материал уникален, сохранялся на протяжении 50 лет и впервые представлен любителям кино для широкого ознакомления.

Сэмпл: https://yadi.sk/i/tx2v62PVfuZX3
качество: VHSRip
формат: AVI
Видео: 720x544 (1.32:1), 25 fps, XviD build 73 ~1999 kbps avg, 0.20 bit/pixel
Аудио: 48 kHz, MPEG Layer 3, 2 ch, ~128.00 kbps avg

MediaInfo

Format                                   : AVI
Format/Info : Audio Video Interleave
File size : 192 MiB
Duration : 12mn 33s
Overall bit rate : 2 138 Kbps
Writing application : VirtualDubMod 1.5.10.3 | www.virtualdub-fr.org || (build 2550/release)
Writing library : VirtualDubMod build 2550/release
Video
ID : 0
Format : MPEG-4 Visual
Format profile : Advanced Simple@L5
Format settings, BVOP : 2
Format settings, QPel : No
Format settings, GMC : No warppoints
Format settings, Matrix : Default (H.263)
Codec ID : XVID
Codec ID/Hint : XviD
Duration : 12mn 33s
Bit rate : 2 000 Kbps
Width : 720 pixels
Height : 544 pixels
Display aspect ratio : 4:3
Frame rate : 25.000 fps
Color space : YUV
Chroma subsampling : 4:2:0
Bit depth : 8 bits
Scan type : Progressive
Compression mode : Lossy
Bits/(Pixel*Frame) : 0.204
Stream size : 180 MiB (94%)
Writing library : XviD 73
Audio
ID : 1
Format : MPEG Audio
Format version : Version 1
Format profile : Layer 3
Codec ID : 55
Codec ID/Hint : MP3
Duration : 12mn 33s
Bit rate mode : Constant
Bit rate : 128 Kbps
Channel(s) : 2 channels
Sampling rate : 48.0 KHz
Compression mode : Lossy
Stream size : 11.5 MiB (6%)
Alignment : Aligned on interleaves
Interleave, duration : 40 ms (1.00 video frame)
Interleave, preload duration : 504 ms
Writing library : LAME3.99r
Encoding settings : -m s -V 4 -q 2 -lowpass 17 -b 128

Скриншоты

[teatrix.ru].t20918.torrent 
Торрент: Зарегистрирован [ 2016-03-20 00:58 ] · 97ED2A341F6EC9C78EDD3781195BDED4D6D55880

Скачать .torrent

Скачать

15 KB

Статус: проверено
Скачан: 0 раз
Размер: 192 MB
terms.php



Быстрый ответ

Имя:

      
Для отправки сообщений необходимо включить JavaScript
Показать сообщения:    

Текущее время: 10-Дек 04:07

Часовой пояс: UTC + 3


Вы можете начинать темы
Вы можете отвечать на сообщения
Вы не можете редактировать свои сообщения
Вы не можете удалять свои сообщения
Вы не можете голосовать в опросах
Вы не можете прикреплять файлы к сообщениям
Вы можете скачивать файлы